<?xml version="1.0" encoding="UTF-8" standalone="no"?>
<!DOCTYPE svg PUBLIC "-//W3C//DTD SVG 1.1//EN" "http://www.w3.org/Graphics/SVG/1.1/DTD/svg11.dtd">
<svg xmlns="http://www.w3.org/2000/svg">
<metadata>Generated by IcoMoon</metadata>
<defs>
<font id="icomoon" horiz-adv-x="1024">
<font-face units-per-em="1024" ascent="960" descent="-64"/>
<missing-glyph horiz-adv-x="1024"/>
<glyph unicode=" " d="" horiz-adv-x="512"/>
<glyph unicode="" d="M811.828 733.153c-212.909-161.139-417.1-376.681-417.1-376.681l-147.146 132.264-61.471-62.618c60.478-56.842 200.602-206.989 248.002-263.271 133.404 222.89 272.090 389.117 403.776 541.123l-26.060 29.182z"/>
<glyph unicode="" d="M811.906 617.316l-54.211 54.211c-7.504 7.504-19.592 7.504-27.097 0l-277.164-292.612-158.871 158.947c-7.582 7.582-19.878 7.582-27.457 0l-54.917-54.955c-7.582-7.56-7.582-19.859 0-27.457l225.952-231.202c4.373-4.393 10.313-5.901 16.021-5.155 5.901-0.878 12.049 0.612 16.575 5.155l341.17 365.956c7.485 7.485 7.485 19.629 0 27.115z"/>
<glyph unicode="" d="M403.375 291.625l-156.375 156.375-53.063-53.062 209.438-209.438 450 450-53.063 53.063z"/>
<glyph unicode="" d="M896 384v-384h-768v384h128v-256h512v256zM1024 369.554l-512 397.428-512-397.428v162.038l512 397.426 512-397.428z"/>
<glyph unicode="" d="M960 448c0-247.424-200.576-448-448-448s-448 200.576-448 448c0 109.056 39.232 208.736 104 286.4 4.928 9.088 11.776 16.992 20.32 22.72 1.44 1.504 2.72 3.2 4.192 4.672 0.032-0.736 0.352-1.44 0.416-2.176 9.248 5.184 19.744 8.384 31.072 8.384 35.328 0 64-28.672 64-64 0-22.272-11.36-41.856-28.64-53.312 1.12-0.832 1.92-1.856 3.072-2.688-44-54.784-70.432-124.256-70.432-200 0-176.736 143.264-320 320-320s320 143.264 320 320c0 75.744-26.432 145.216-70.432 200 1.152 0.832 1.984 1.856 3.072 2.688-17.28 11.456-28.64 31.040-28.64 53.312 0 35.328 28.672 64 64 64 11.328 0 21.824-3.2 31.072-8.384 0.064 0.736 0.384 1.44 0.448 2.176 1.44-1.472 2.72-3.168 4.192-4.672 8.544-5.728 15.36-13.632 20.32-22.72 64.704-77.664 103.968-177.344 103.968-286.4zM544 384h-64c-17.696 0-32 14.304-32 32v448c0 17.664 14.304 32 32 32h64c17.696 0 32-14.336 32-32v-448c0-17.696-14.304-32-32-32z"/>
<glyph unicode="" d="M239.975 893.815c-0.675 5.58-9.9 5.58-10.53 0-22.995-185.175-140.445-223.335-140.445-352.035 0-79.515 66.69-143.955 145.71-143.955s145.71 64.441 145.71 143.955c0 128.7-117.45 166.86-140.445 352.035zM794.555 893.815c-0.72 5.58-9.855 5.58-10.53 0-22.995-185.175-140.445-223.335-140.445-352.035 0-79.515 66.69-143.955 145.71-143.955s145.71 64.441 145.71 143.955c0 128.7-117.45 166.86-140.445 352.035zM506.736 493.99c-22.995-185.175-140.445-223.29-140.445-351.99 0-79.559 66.69-144.001 145.71-144.001s145.71 64.485 145.71 144.001c0 128.655-117.45 166.815-140.445 351.99-0.675 5.625-9.855 5.625-10.53 0z"/>
<glyph unicode="" d="M455.53 904.093c-210.48-25.013-377.269-191.857-402.282-402.282h402.282v402.282zM570.601 903.274v-461.756c0-30.256-24.522-54.778-54.832-54.778h-461.756c29.546-225.826 222.441-400.207 456.24-400.207 254.279 0 460.499 206.111 460.499 460.499 0 233.799-174.381 426.694-400.151 456.24z"/>
<glyph unicode="" d="M384 704h-320c-35.2 0-64-28.8-64-64v-256c0-35.2 28.8-64 64-64v0 256h32v-592c0-26.4 21.6-48 48-48s48 21.6 48 48v336h64v-336c0-26.4 21.6-48 48-48s48 21.6 48 48v592h32v-256c35.2 0 64 28.8 64 64v256c0 35.2-28.8 64-64 64zM128.032 864.032c0 53.002 42.966 95.968 95.968 95.968s95.968-42.966 95.968-95.968c0-53.002-42.966-95.968-95.968-95.968s-95.968 42.966-95.968 95.968zM960 704h-320c-35.2 0-64-28.8-64-64v-256c0-35.2 28.8-64 64-64v256h32v-592c0-26.4 21.6-48 48-48s48 21.6 48 48v336h64v-336c0-26.4 21.6-48 48-48s48 21.6 48 48v592h32v-256c35.2 0 64 28.8 64 64v256c0 35.2-28.8 64-64 64zM704.032 864.032c0 0 0 0 0 0 0 53.002 42.966 95.968 95.968 95.968s95.968-42.966 95.968-95.968c0 0 0 0 0 0 0-53.002-42.966-95.968-95.968-95.968s-95.968 42.966-95.968 95.968z"/>
<glyph unicode="" d="M512 960c-282.77 0-512-229.23-512-512s229.23-512 512-512 512 229.23 512 512-229.23 512-512 512zM512 64c-212.078 0-384 171.922-384 384s171.922 384 384 384c212.078 0 384-171.922 384-384s-171.922-384-384-384zM416 128l-212 276 94 98 118-150 370 302 46-46z"/>
<glyph unicode="" d="M512 960c282.77 0 512-229.23 512-512s-229.23-512-512-512-512 229.23-512 512 229.23 512 512 512zM512 32c229.75 0 416 186.25 416 416s-186.25 416-416 416-416-186.25-416-416 186.25-416 416-416zM640 704c35.346 0 64-28.654 64-64s-28.654-64-64-64h-165.488l274.742-274.744c24.994-24.994 24.994-65.518 0-90.512-12.496-12.496-28.876-18.744-45.254-18.744s-32.758 6.248-45.254 18.744l-274.746 274.746v-165.49c0-35.346-28.654-64-64-64s-64 28.654-64 64v384h384z"/>
<glyph unicode="" d="M1024 448c0-282.77-229.23-512-512-512s-512 229.23-512 512 229.23 512 512 512 512-229.23 512-512zM96 448c0-229.75 186.25-416 416-416s416 186.25 416 416-186.25 416-416 416-416-186.25-416-416zM557.254 749.256l256-256.002c24.994-24.992 24.994-65.514 0-90.508s-65.516-24.994-90.51 0l-146.744 146.744v-357.49c0-35.346-28.654-64-64-64s-64 28.654-64 64v357.49l-146.744-146.746c-24.994-24.994-65.518-24.994-90.512 0-12.496 12.498-18.744 28.878-18.744 45.256s6.248 32.758 18.744 45.254l256 256.002c24.994 24.992 65.518 24.992 90.51 0z"/>
<glyph unicode="" d="M512 960c-282.77 0-512-229.23-512-512s229.23-512 512-512 512 229.23 512 512-229.23 512-512 512zM512 32c-229.75 0-416 186.25-416 416s186.25 416 416 416 416-186.25 416-416-186.25-416-416-416zM384 704c-35.346 0-64-28.654-64-64s28.654-64 64-64h165.488l-274.742-274.744c-24.994-24.994-24.994-65.518 0-90.512 12.496-12.496 28.876-18.744 45.254-18.744s32.758 6.248 45.254 18.744l274.746 274.746v-165.49c0-35.346 28.654-64 64-64s64 28.654 64 64v384h-384z"/>
<glyph unicode="" d="M512 960c-282.77 0-512-229.23-512-512s229.23-512 512-512 512 229.23 512 512-229.23 512-512 512zM512 32c-229.75 0-416 186.25-416 416s186.25 416 416 416 416-186.25 416-416-186.25-416-416-416zM813.256 493.254l-256.002 256c-24.992 24.994-65.514 24.994-90.508 0s-24.994-65.516 0-90.51l146.744-146.744h-357.49c-35.346 0-64-28.654-64-64s28.654-64 64-64h357.49l-146.746-146.744c-24.994-24.994-24.994-65.518 0-90.512 12.498-12.496 28.878-18.744 45.256-18.744s32.758 6.248 45.254 18.744l256.002 256c24.992 24.994 24.992 65.518 0 90.51z"/>
<glyph unicode="" d="M512-64c-282.77 0-512 229.23-512 512s229.23 512 512 512 512-229.23 512-512-229.23-512-512-512zM512 864c-229.75 0-416-186.25-416-416s186.25-416 416-416 416 186.25 416 416-186.25 416-416 416zM384 192c-35.346 0-64 28.654-64 64s28.654 64 64 64h165.488l-274.742 274.744c-24.994 24.994-24.994 65.518 0 90.512 12.496 12.496 28.876 18.744 45.254 18.744s32.758-6.248 45.254-18.744l274.746-274.746v165.49c0 35.346 28.654 64 64 64s64-28.654 64-64v-384h-384z"/>
<glyph unicode="" d="M1024 448c0 282.77-229.23 512-512 512s-512-229.23-512-512 229.23-512 512-512 512 229.23 512 512zM96 448c0 229.75 186.25 416 416 416s416-186.25 416-416-186.25-416-416-416-416 186.25-416 416zM557.254 146.744l256 256.002c24.994 24.992 24.994 65.514 0 90.508s-65.516 24.994-90.51 0l-146.744-146.744v357.49c0 35.346-28.654 64-64 64s-64-28.654-64-64v-357.49l-146.744 146.746c-24.994 24.994-65.518 24.994-90.512 0-12.496-12.498-18.744-28.878-18.744-45.256s6.248-32.758 18.744-45.254l256-256.002c24.994-24.992 65.518-24.992 90.51 0z"/>
<glyph unicode="" d="M512-64c282.77 0 512 229.23 512 512s-229.23 512-512 512-512-229.23-512-512 229.23-512 512-512zM512 864c229.75 0 416-186.25 416-416s-186.25-416-416-416-416 186.25-416 416 186.25 416 416 416zM640 192c35.346 0 64 28.654 64 64s-28.654 64-64 64h-165.488l274.742 274.744c24.994 24.994 24.994 65.518 0 90.512-12.496 12.496-28.876 18.744-45.254 18.744s-32.758-6.248-45.254-18.744l-274.746-274.746v165.49c0 35.346-28.654 64-64 64s-64-28.654-64-64v-384h384z"/>
<glyph unicode="" d="M512 960c282.77 0 512-229.23 512-512s-229.23-512-512-512-512 229.23-512 512 229.23 512 512 512zM512 32c229.75 0 416 186.25 416 416s-186.25 416-416 416-416-186.25-416-416 186.25-416 416-416zM210.744 493.254l256.002 256c24.992 24.994 65.514 24.994 90.508 0s24.994-65.516 0-90.51l-146.744-146.744h357.49c35.346 0 64-28.654 64-64s-28.654-64-64-64h-357.49l146.746-146.744c24.994-24.994 24.994-65.518 0-90.512-12.498-12.496-28.878-18.744-45.256-18.744s-32.758 6.248-45.254 18.744l-256.002 256c-24.992 24.994-24.992 65.518 0 90.51z"/>
<glyph unicode="" d="M1024 369.554l-512 397.428-512-397.428v162.038l512 397.426 512-397.428zM896 384v-384h-768v384l384 288z"/>
<glyph unicode="" d="M1024 369.556l-512 397.426-512-397.428v162.038l512 397.426 512-397.428zM896 384v-384h-256v256h-256v-256h-256v384l384 288z"/>
<glyph unicode="" d="M1024 352l-192 192v288h-128v-160l-192 192-512-512v-32h128v-320h320v192h128v-192h320v320h128z"/>
<glyph unicode="" d="M294.4 576l281.6 256h-288l-281.6-256zM0 512h256v-512h-256v512zM672 832l-352-320v-512h256v256h192v-256h256v512z"/>
<glyph unicode="" d="M1024 416l-512 512-512-512 96-96 96 96v-480h256v192h128v-192h256v480l96-96 96 96zM768 0h-128v192h-256v-192h-128v480l256 256 256-256v-480z"/>
<glyph unicode="" d="M512 928l-512-512 96-96 96 96v-480h256v192h128v-192h256v480l96-96 96 96-512 512zM264 0h-8v480l8 8v-488zM296 0h-16v504l16 16v-520zM328 0h-16v536l16 16v-552zM360 0h-16v568l16 16v-584zM392 192h-8v-192h-8v600l16 16v-424zM424 192h-16v440l16 16v-456zM456 192h-16v472l16 16v-488zM488 192h-16v504l16 16v-520zM520 192h-16v536l8 8 8-8v-536zM552 192h-16v520l16-16v-504zM584 192h-16v488l16-16v-472zM616 192h-16v456l16-16v-440zM648 0h-8v192h-8v424l16-16v-600zM680 0h-16v584l16-16v-568zM712 0h-16v552l16-16v-536zM744 0h-16v520l16-16v-504zM768 0h-8v488l8-8v-480z"/>
<glyph unicode="" d="M0-64h512v1024h-512v-1024zM320 832h128v-128h-128v128zM320 576h128v-128h-128v128zM320 320h128v-128h-128v128zM64 832h128v-128h-128v128zM64 576h128v-128h-128v128zM64 320h128v-128h-128v128zM576 640h448v-64h-448zM576-64h128v256h192v-256h128v576h-448z"/>
<glyph unicode="" d="M992 704h-32v96c0 17.672-14.326 32-32 32h-96v96c0 17.672-14.326 32-32 32s-32-14.328-32-32v-96h-96c-17.674 0-32-14.328-32-32v-96h-32c-17.674 0-32-14.328-32-32v-160h192c35.348 0 64-28.654 64-64v-448h-64v416c0 17.674-14.326 32-32 32h-384c-17.672 0-32-14.326-32-32v-416h-64v448c0 35.346 28.654 64 64 64h128v288c0 17.672-14.328 32-32 32h-384c-17.672 0-32-14.328-32-32v-832c0-17.674 14.328-32 32-32h960c17.674 0 32 14.326 32 32v704c0 17.672-14.326 32-32 32zM704 576h-64v64h64v-64zM320 768h64v-64h-64v64zM320 640h64v-64h-64v64zM192 768h64v-64h-64v64zM128 192h-64v64h64v-64zM128 320h-64v64h64v-64zM128 448h-64v64h64v-64zM128 576h-64v64h64v-64zM128 704h-64v64h64v-64zM192 640h64v-64h-64v64zM704 0h-320v384h320v-384zM832 576h-64v64h64v-64zM960 192h-64v128h64v-128zM960 384h-64v128h64v-128zM960 576h-64v64h64v-64zM448 320h64v-64h-64v64zM576 320h64v-64h-64v64zM448 192h64v-64h-64v64zM576 192h64v-64h-64v64z"/>
<glyph unicode="" d="M896 704v128h-896v-704c0-35.346 28.654-64 64-64h864c53.022 0 96 42.978 96 96v544h-128zM832 128h-768v640h768v-640zM128 640h640v-64h-640zM512 512h256v-64h-256zM512 384h256v-64h-256zM512 256h192v-64h-192zM128 512h320v-320h-320z"/>
<glyph unicode="" d="M672 576h128c17.674 0 32 14.328 32 32s-14.326 32-32 32h-128c-17.674 0-32-14.328-32-32s14.326-32 32-32zM672 704h128c17.674 0 32 14.328 32 32s-14.326 32-32 32h-128c-17.674 0-32-14.328-32-32s14.326-32 32-32zM672 448h128c17.674 0 32 14.328 32 32s-14.326 32-32 32h-128c-17.674 0-32-14.328-32-32s14.326-32 32-32zM224 192h576c17.674 0 32 14.326 32 32s-14.326 32-32 32h-576c-17.672 0-32-14.326-32-32s14.328-32 32-32zM224 320h576c17.674 0 32 14.326 32 32s-14.326 32-32 32h-576c-17.672 0-32-14.326-32-32s14.328-32 32-32zM928 960h-736c-40.854 0-72.82-11.314-95.016-33.63-22.106-22.228-33.204-54.036-32.984-94.37v-864.002c0-17.672 14.328-31.998 32-31.998h704c17.674 0 32 14.326 32 32v32h96c17.674 0 32 14.326 32 32v896c0 17.672-14.326 32-32 32zM896 64h-768.002l0.002 768.174c-0.124 22.85 4.708 39.356 14.364 49.064 9.74 9.796 26.442 14.762 49.636 14.762h704v-832zM544 832h-320c-17.6 0-32-14.4-32-32v-320c0-17.6 14.4-32 32-32h320c17.6 0 32 14.4 32 32v320c0 17.6-14.4 32-32 32zM512 512h-256v64c0 35.346 28.654 64 64 64h64c-35.346 0-64 28.654-64 64s28.654 64 64 64 64-28.654 64-64-28.654-64-64-64h64c35.346 0 64-28.654 64-64v-64z"/>
<glyph unicode="" d="M1024 672v256l-992-992h256v64h32v-64h96v128h32v-128h96v64h32v-64h96v128h32v-128h96v64h32v-64h192v192h-64v32h64v96h-128v32h128v96h-64v32h64v96h-128v32h128v96h-64v32h64zM832 128h-352l352 352v-352zM608 960l-512-512-96-256 256 96 512 512c0 96-64 160-160 160zM224 384l-64 64 448 448 64-64-448-448z"/>
<glyph unicode="" d="M864 960c88.364 0 160-71.634 160-160 0-36.020-11.91-69.258-32-96l-64-64-224 224 64 64c26.742 20.090 59.978 32 96 32zM64 224l-64-288 288 64 592 592-224 224-592-592zM715.578 596.422l-448-448-55.156 55.156 448 448 55.156-55.156z"/>
<glyph unicode="" d="M762.238 960c-10.208 0-20.17-1.138-29.78-3.542l-572.458-572.458-160-448 447.666 160 572.792 572.458c29.598 118.392-132.442 291.542-258.22 291.542zM417.618 190.382l-163.392 163.392 480 480 163.534-163.532-480.142-479.86z"/>
<glyph unicode="" d="M732.458 956.458l-572.458-572.458h96v-64h64v-64h64v-64h64v-95.668l572.458 572.126c32 128-160 320-288 288zM384 128h-64v64h-64v64h-64v64h-54.858l-137.142-384 384 137.244z"/>
<glyph unicode="" d="M768 416v-352h-640v640h352l128 128h-512c-52.8 0-96-43.2-96-96v-704c0-52.8 43.2-96 96-96h704c52.8 0 96 43.2 96 96v512l-128-128zM864 960l-608-608v-160h160l608 608c0 96-64 160-160 160z"/>
<glyph unicode="" d="M384 320l128 64 448 448-64 64-448-448-64-128zM289.3 92.902c-31.632 66.728-65.666 100.762-132.396 132.394l99.096 272.792 128 77.912 384 384h-192l-384-384-192-640 640 192 384 384v192l-384-384-77.912-128z"/>
<glyph unicode="" d="M768 416v-352h-640v640h352l128 128h-512c-52.8 0-96-43.2-96-96v-704c0-52.8 43.2-96 96-96h704c52.798 0 96 43.2 96 96v512l-128-128zM864 960l-608-608v-160h160l608 608c0 96-64 160-160 160zM416 320l-48 48 480 480 48-48-480-480z"/>
<glyph unicode="" d="M959.688 680.602c-3.682 56.024-42.77 92.21-74.302 106.744-0.186 0.086-3.49 1.562-4.922 2.136l-201.156 80.46c-13.002 5.202-27.32 7.838-42.562 7.838-36.582 0-73.054-15.462-95.182-40.354 0 0-429.738-483.604-431.036-485.276-0.048-0.052-0.092-0.096-0.138-0.15-28.134-32-46.39-64-46.39-128v-64c0-48.036 34.936-99.638 79.538-117.48l189.076-75.664c29.188-11.376 77.81-37.384 137.188 15.566 4.268 3.446 8.484 7.484 12.634 12.152l4.804 5.406c0.006 0.006 0.012 0.012 0.018 0.020v0l422.136 474.906c28.38 31.92 50.606 90.382 50.606 133.094v64c0 1.7-0.304 8.502-0.312 8.602zM162.438 314.574l426.96 480.332c10.036 11.29 29.062 18.874 47.348 18.874 6.962 0 13.46-1.126 18.792-3.26l201.156-80.46c5.596-2.24 9.512-5.488 10.216-8.48 0.708-2.992-1.342-7.648-5.348-12.154l-426.96-480.332c-10.036-11.29-29.062-18.874-47.346-18.874-6.962 0-13.462 1.126-18.794 3.26l-201.154 80.46c-5.598 2.238-9.512 5.488-10.218 8.48s1.344 7.65 5.348 12.154zM128 160v64c0 12.482 4.82 12.482 6.878 12.482 1.712 0 4.604-0.34 8.66-1.962l201.154-80.46c20.574-8.232 39.308-35.904 39.308-58.060v-64c0-12.482-4.82-12.482-6.878-12.482-1.712 0-4.604 0.34-8.66 1.962l-201.154 80.46c-20.572 8.232-39.308 35.904-39.308 58.060zM896 608c0-27.128-16.414-70.3-34.438-90.574l-413.562-465.26v43.834c0 27.126 16.414 70.298 34.436 90.574l413.564 465.26v-43.834z"/>
<glyph unicode="" d="M959.89 676.968c-0.042 1.122-0.194 3.536-0.202 3.634-3.682 56.024-42.77 92.21-74.302 106.744-0.186 0.086-3.49 1.562-4.922 2.136l-201.156 80.46c-13.002 5.202-27.32 7.838-42.562 7.838-36.582 0-73.054-15.462-95.182-40.354l-426.96-480.332c-1.436-1.616-2.778-3.272-4.076-4.944-0.048-0.052-0.092-0.096-0.138-0.15-28.134-32-46.39-64-46.39-128v-64c0-48.036 34.936-99.638 79.538-117.48l189.076-75.664c29.188-11.376 77.81-37.384 137.188 15.566 4.268 3.446 8.484 7.484 12.634 12.152l4.804 5.406c0.006 0.006 0.012 0.012 0.018 0.020l422.136 474.906c28.38 31.92 50.606 90.382 50.606 133.094v64c0 1.7-0.042 3.346-0.11 4.968zM589.396 794.906c10.036 11.29 29.062 18.874 47.348 18.874 6.962 0 13.46-1.126 18.792-3.26l201.156-80.46c5.596-2.24 9.512-5.488 10.216-8.48 0.708-2.992-1.342-7.648-5.348-12.154l-250.52-281.842-256.832 102.734 235.188 264.588zM896 608c0-27.128-16.414-70.3-34.438-90.574l-221.562-249.26v95.668l256 288v-43.834z"/>
<glyph unicode="" d="M959.688 680.602c-3.682 56.024-42.77 92.21-74.302 106.744-0.186 0.086-3.49 1.562-4.922 2.136l-201.156 80.46c-13.002 5.202-27.32 7.838-42.562 7.838-36.582 0-73.054-15.462-95.182-40.354 0 0-429.738-483.604-431.036-485.276-0.048-0.052-0.092-0.096-0.138-0.15-28.134-32-46.39-64-46.39-128v-64c0-48.036 34.936-99.638 79.538-117.48l189.076-75.664c29.188-11.376 77.81-37.384 137.188 15.566 4.268 3.446 8.484 7.484 12.634 12.152l4.804 5.406c0.006 0.006 0.012 0.012 0.018 0.020v0l422.136 474.906c28.38 31.92 50.606 90.382 50.606 133.094v64c0 1.7-0.304 8.502-0.312 8.602zM162.438 314.574l426.96 480.332c10.036 11.29 29.062 18.874 47.348 18.874 6.962 0 13.46-1.126 18.792-3.26l201.156-80.46c5.596-2.24 9.512-5.488 10.216-8.48 0.708-2.992-1.342-7.648-5.348-12.154l-426.96-480.332c-10.036-11.29-29.062-18.874-47.346-18.874-6.962 0-13.462 1.126-18.794 3.26l-201.154 80.46c-5.598 2.238-9.512 5.488-10.218 8.48s1.344 7.65 5.348 12.154z"/>
<glyph unicode="" d="M0-64h64l192 320c0 0 0 0 192 0s313 493 576 704c-561 0-896-640-1024-1024zM392 384h-72c0 0 177 320 448 448 0 0-243-215-376-448z"/>
<glyph unicode="" d="M0-64c0 146.61 24.154 300.694 71.788 426.418 46.046 121.534 112.876 228.736 198.634 318.626 84.922 89.014 185.74 158.31 299.652 205.966 115.772 48.432 241.578 72.99 373.926 72.99 5.44 0 10.508-2.764 13.454-7.338s3.364-10.332 1.114-15.284c-33.392-73.464-118.486-141.56-252.914-202.398-19.080-8.636-37.99-16.58-56.262-23.826 12.48 0.442 25.158 0.664 38.032 0.664 75.258 0 128.65-7.662 130.886-7.988 5.372-0.782 9.976-4.234 12.238-9.168 2.26-4.932 1.866-10.676-1.048-15.254-48.312-75.92-153.852-146.008-313.688-208.318-13.156-5.128-26.166-9.994-38.886-14.584 9.356 0.274 18.704 0.412 28.042 0.412 74.416 0 120.208-8.844 122.124-9.22 5.518-1.086 10.060-4.99 11.964-10.284 1.904-5.292 0.89-11.196-2.672-15.546-145.89-178.31-245.564-229.868-444.384-229.868-45.278 0-80.514-39.288-104.728-116.772-19.202-61.444-23.272-139.228-23.272-139.228z"/>
<glyph unicode="" d="M928.002 575.994l-287.996 287.998 95.998 96 287.998-287.998-96-96zM624 784l224-224-144-368-576-256-41.374 41.376 344.806 344.802c5.286-1.414 10.836-2.178 16.568-2.178 35.346 0 64 28.654 64 64s-28.654 64-64 64-64-28.654-64-64c0-5.73 0.764-11.282 2.178-16.57l-344.804-344.806-41.374 41.376 256 576 368 144z"/>
<glyph unicode="" d="M1120.002 575.994l-287.996 287.998 95.998 96 287.996-287.998-95.998-96zM816 784l224-224-144-368-576-256-41.376 41.376 344.806 344.802c5.286-1.414 10.836-2.178 16.568-2.178 35.346 0 64 28.654 64 64s-28.654 64-64 64-64-28.654-64-64c0-5.73 0.764-11.282 2.178-16.57l-344.802-344.806-41.374 41.376 256 576 368 144zM384 832h-128v128h-128v-128h-128v-128h128v-128h128v128h128z" horiz-adv-x="1216"/>
<glyph unicode="" d="M1120.002 575.994l-287.996 287.998 95.998 96 287.996-287.998-95.998-96zM816 784l224-224-144-368-576-256-41.376 41.376 344.806 344.802c5.286-1.414 10.836-2.178 16.568-2.178 35.346 0 64 28.654 64 64s-28.654 64-64 64-64-28.654-64-64c0-5.73 0.764-11.282 2.178-16.57l-344.802-344.806-41.374 41.376 256 576 368 144zM0 832h384v-128h-384v128z" horiz-adv-x="1216"/>
<glyph unicode="" d="M1018.17 668.11l-286.058 286.058c-9.334 9.334-21.644 7.234-27.356-4.666l-38.354-79.904 267.198-267.198 79.904 38.354c11.9 5.712 14 18.022 4.666 27.356zM615.384 824.616l-263.384-21.95c-17.5-2.166-32.080-5.898-37.090-28.752-0.006-0.024-0.012-0.042-0.018-0.066-71.422-343.070-314.892-677.848-314.892-677.848l57.374-57.374 271.986 271.99c-5.996 12.53-9.36 26.564-9.36 41.384 0 53.020 42.98 96 96 96s96-42.98 96-96-42.98-96-96-96c-14.82 0-28.852 3.364-41.384 9.36l-271.988-271.986 57.372-57.374c0 0 334.778 243.47 677.848 314.892 0.024 0.006 0.042 0.012 0.066 0.018 22.854 5.010 26.586 19.59 28.752 37.090l21.95 263.384-273.232 273.232z"/>
<glyph unicode="" d="M384 960v-96c73.482 0 144.712-14.37 211.716-42.71 64.768-27.394 122.958-66.632 172.948-116.624s89.228-108.18 116.624-172.948c28.342-67.004 42.712-138.238 42.712-211.718h96c0 353.46-286.54 640-640 640zM384 768v-96c94.022 0 182.418-36.614 248.9-103.098 66.486-66.484 103.1-154.878 103.1-248.902h96c0 247.422-200.576 448-448 448zM480 576l-64-64-224-64-192-416 25.374-25.374 232.804 232.804c-1.412 5.286-2.178 10.84-2.178 16.57 0 35.346 28.654 64 64 64s64-28.654 64-64-28.654-64-64-64c-5.732 0-11.282 0.764-16.568 2.178l-232.804-232.804 25.372-25.374 416 192 64 224 64 64-160 160z"/>
<glyph unicode="" d="M1024 800c0 88.366-71.634 160-160 160-52.348 0-98.818-25.144-128.008-64.008l-575.992-575.992 224-224 575.992 575.992c38.864 29.19 64.008 75.66 64.008 128.008zM0-64l96 320 224-224z"/>
<glyph unicode="" d="M220.798-63.484c-0.010 0-0.016 0-0.028 0-118.754 0.012-205.070 67.562-208.686 70.438-10.65 8.468-14.78 22.748-10.294 35.596 4.484 12.844 16.604 21.45 30.21 21.45 95.336 0 117.642 51.26 145.88 116.154 27.112 62.304 60.852 139.846 174.14 139.846 42.726 0 82.9-16.642 113.118-46.864 30.22-30.22 46.862-70.4 46.862-113.136 0-42.738-16.642-82.918-46.864-113.136-73.22-73.222-155.43-110.348-244.338-110.348zM1002.344 943.924c-26.538 23.452-67.062 20.95-90.516-5.588l-484.156-547.878c-2.848-3.27-5.96-7.208-8.462-10.878-4.23-6.206-7.734-12.692-10.542-19.356 33.846-9.524 64.868-27.6 90.414-53.146 25.7-25.7 43.842-56.942 53.318-91.030 19.064 7.916 36.13 21.254 48.624 39.582l411.844 604.122c17.98 26.314 13.978 62.522-10.524 84.172z"/>
<glyph unicode="" d="M512 736c0-17.673-14.327-32-32-32s-32 14.327-32 32c0 17.673 14.327 32 32 32s32-14.327 32-32zM384 736c0-17.673-14.327-32-32-32s-32 14.327-32 32c0 17.673 14.327 32 32 32s32-14.327 32-32zM384 864c0-17.673-14.327-32-32-32s-32 14.327-32 32c0 17.673 14.327 32 32 32s32-14.327 32-32zM256 736c0-17.673-14.327-32-32-32s-32 14.327-32 32c0 17.673 14.327 32 32 32s32-14.327 32-32zM128 736c0-17.673-14.327-32-32-32s-32 14.327-32 32c0 17.673 14.327 32 32 32s32-14.327 32-32zM64 672c0-17.673-14.327-32-32-32s-32 14.327-32 32c0 17.673 14.327 32 32 32s32-14.327 32-32zM192 800c0-17.673-14.327-32-32-32s-32 14.327-32 32c0 17.673 14.327 32 32 32s32-14.327 32-32zM128 864c0-17.673-14.327-32-32-32s-32 14.327-32 32c0 17.673 14.327 32 32 32s32-14.327 32-32zM64 800c0-17.673-14.327-32-32-32s-32 14.327-32 32c0 17.673 14.327 32 32 32s32-14.327 32-32zM64 928c0-17.673-14.327-32-32-32s-32 14.327-32 32c0 17.673 14.327 32 32 32s32-14.327 32-32zM320 800c0-17.673-14.327-32-32-32s-32 14.327-32 32c0 17.673 14.327 32 32 32s32-14.327 32-32zM256 864c0-17.673-14.327-32-32-32s-32 14.327-32 32c0 17.673 14.327 32 32 32s32-14.327 32-32zM192 928c0-17.673-14.327-32-32-32s-32 14.327-32 32c0 17.673 14.327 32 32 32s32-14.327 32-32zM320 672c0-17.673-14.327-32-32-32s-32 14.327-32 32c0 17.673 14.327 32 32 32s32-14.327 32-32zM192 672c0-17.673-14.327-32-32-32s-32 14.327-32 32c0 17.673 14.327 32 32 32s32-14.327 32-32zM128 608c0-17.673-14.327-32-32-32s-32 14.327-32 32c0 17.673 14.327 32 32 32s32-14.327 32-32zM448 800c0-17.673-14.327-32-32-32s-32 14.327-32 32c0 17.673 14.327 32 32 32s32-14.327 32-32zM924.782 684.298c-26.964 6.742-58.526 11.856-92.782 15.192v100.51c0 17.672-42.98 32-96 32s-96-14.328-96-32v-32h32c17.674 0 32-14.328 32-32s-14.326-33.95-32-33.95l-0.008-0.006c-46.632-2.896-89.594-8.952-124.774-17.746-24.538-6.134-99.218-24.804-99.218-76.298v-576c0-51.496 74.68-70.164 99.218-76.3 50.816-12.704 117.86-19.7 188.782-19.7s137.964 6.996 188.782 19.7c24.538 6.136 99.218 24.804 99.218 76.3v576c0 51.494-74.68 70.164-99.218 76.298zM960 289.754c-14.162 5.27-27.302 8.566-35.218 10.544-43.096 10.776-97.878 17.424-156.782 19.202v-223.5c0-17.674-14.326-32-32-32s-32 14.326-32 32v223.5c-58.902-1.778-113.686-8.426-156.782-19.202-7.916-1.978-21.056-5.276-35.218-10.544v252.49c14.162-5.27 27.302-8.564 35.218-10.544 43.096-10.774 97.878-17.422 156.782-19.2v-193c10.554 0.318 21.224 0.5 32 0.5s21.446-0.182 32-0.5v193c58.902 1.778 113.686 8.426 156.782 19.2 7.916 1.98 21.056 5.274 35.218 10.544v-252.49z"/>
<glyph unicode="" d="M736 256h-704c-17.672 0-32-14.326-32-32v-192c0-17.674 14.328-32 32-32h704c17.674 0 32 14.326 32 32v192c0 17.674-14.326 32-32 32zM640 64c-35.346 0-64 28.652-64 64s28.654 64 64 64 64-28.652 64-64-28.654-64-64-64zM768 282.842v453.158c0 17.672-14.326 32-32 32h-192c-17.674 0-32-14.328-32-32v-197.158l256-256zM1004.656 662.642l-172.656 83.336v-514.658l187.566 388.592c7.682 15.918 1.008 35.046-14.91 42.73zM629.020 320l-328.43 328.432c-12.498 12.496-32.758 12.496-45.254 0l-135.764-135.766c-12.498-12.496-12.498-32.758 0-45.254l147.408-147.412h362.040z"/>
<glyph unicode="" d="M896 576v224c0 17.672-14.326 32-32 32h-224v128l-160-160 160-160v128h192v-192h-128l160-160 160 160h-128zM720 448h-208v208c0 26.4-21.6 48-48 48h-416c-26.4 0-48-21.6-48-48v-416c0-26.4 21.6-48 48-48h208v-208c0-26.4 21.6-48 48-48h416c26.4 0 48 21.6 48 48v416c0 26.4-21.6 48-48 48zM704 0h-384v192h144c26.4 0 48 21.6 48 48v144h192v-384z"/>
<glyph unicode="" d="M848.976 598.31c-19.946 8.574-47.652 16.12-82.35 22.428-68.316 12.422-158.744 19.262-254.626 19.262s-186.31-6.84-254.626-19.262c-34.7-6.308-62.406-13.854-82.35-22.428-31.202-13.412-47.024-31.686-47.024-54.31 0-2.978 0.292-5.876 0.838-8.7l63.22-505.758c2.148-44.99 63.216-63.782 109.354-74.034 56.608-12.58 131.396-19.508 210.588-19.508 79.194 0 153.98 6.928 210.588 19.508 46.138 10.252 107.208 29.042 109.354 74.034l63.218 505.75c0.546 2.828 0.84 5.728 0.84 8.708 0 22.624-15.822 40.898-47.024 54.31zM290.488 561.382c61.68 9.426 140.348 14.618 221.512 14.618 81.162 0 159.83-5.192 221.514-14.618 38.48-5.88 62.974-12.196 78.296-17.382-15.322-5.186-39.816-11.502-78.296-17.382-61.684-9.426-140.352-14.618-221.514-14.618-81.164 0-159.832 5.192-221.512 14.618-38.482 5.88-62.976 12.196-78.298 17.382 15.322 5.186 39.816 11.502 78.298 17.382zM768.644 39.156c-5.584-4.062-24.746-15.010-78.534-24.94-49.656-9.168-112.91-14.216-178.11-14.216-65.198 0-128.452 5.048-178.11 14.216-53.79 9.93-72.95 20.876-78.536 24.94l-55.188 441.498c16.15-4.922 35.278-9.404 57.208-13.392 19.244-3.5 40.244-6.554 62.626-9.14v-138.122c0-35.346 28.654-64 64-64s64 28.654 64 64v129.038c20.928-0.684 42.322-1.038 64-1.038v-288c0-17.674 14.328-32 32-32s32 14.326 32 32v289.038c21.924 0.718 43.332 1.802 64 3.238v-100.276c0-17.674 14.326-32 32-32s32 14.326 32 32v106.122c22.382 2.586 43.382 5.642 62.626 9.14 21.928 3.988 41.056 8.47 57.208 13.392l-55.19-441.498zM876.542 829.438c-35.15 42.002-82.188 74.256-139.804 95.862-61.402 23.026-137.016 34.7-224.738 34.7-87.724 0-163.336-11.674-224.736-34.7-57.62-21.606-104.656-53.86-139.806-95.862-56.938-68.042-83.458-158.742-83.458-285.438 0-17.672 14.328-32 32-32s32 14.328 32 32c0 110.836 21.78 188.486 68.542 244.366 28.362 33.894 65.388 59.084 113.194 77.010 54.19 20.32 122.242 30.624 202.264 30.624 80.024 0 148.074-10.304 202.264-30.624 47.806-17.926 84.832-43.116 113.196-77.010 46.76-55.88 68.54-133.53 68.54-244.366 0-17.672 14.326-32 32-32s32 14.328 32 32c0 126.696-26.52 217.396-83.458 285.438z"/>
<glyph unicode="" d="M960 960h-896c-35.2 0-64-28.8-64-64v-896c0-35.2 28.8-64 64-64h896c35.2 0 64 28.8 64 64v896c0 35.2-28.8 64-64 64zM320 896v-32h-32v32h32zM288 160v32h32v-32h-32zM320 128v-32h-32v32h32zM288 224v32h32v-32h-32zM288 288v32h32v-32h-32zM288 352v32h32v-32h-32zM288 416v32h32v-32h-32zM288 480v32h32v-32h-32zM288 544v32h32v-32h-32zM288 608v32h32v-32h-32zM288 672v32h32v-32h-32zM288 736v32h32v-32h-32zM288 800v32h32v-32h-32zM288 64h32v-32h-32v32zM256 896v-32h-32v32h32zM224 160v32h32v-32h-32zM256 128v-32h-32v32h32zM224 224v32h32v-32h-32zM224 288v32h32v-32h-32zM224 352v32h32v-32h-32zM224 416v32h32v-32h-32zM224 480v32h32v-32h-32zM224 544v32h32v-32h-32zM224 608v32h32v-32h-32zM224 672v32h32v-32h-32zM224 736v32h32v-32h-32zM224 800v32h32v-32h-32zM224 64h32v-32h-32v32zM192 896v-32h-32v32h32zM160 160v32h32v-32h-32zM192 128v-32h-32v32h32zM160 224v32h32v-32h-32zM160 288v32h32v-32h-32zM160 352v32h32v-32h-32zM160 416v32h32v-32h-32zM160 480v32h32v-32h-32zM160 544v32h32v-32h-32zM160 608v32h32v-32h-32zM160 672v32h32v-32h-32zM160 736v32h32v-32h-32zM160 800v32h32v-32h-32zM160 64h32v-32h-32v32zM960 0h-128v32h-32v-32h-32v32h-32v-32h-32v32h-32v-32h-32v32h-32v-32h-32v32h-32v-32h-32v32h-32v-32h-32v32h-32v-32h-32v32h-32v32h32v32h-32v32h32v32h-32v32h32v32h-32v32h32v32h-32v32h32v32h-32v32h32v32h-32v32h32v32h-32v32h32v32h-32v32h32v32h-32v32h32v32h-32v32h32v32h-32v32h32v32h-32v32h32v32h-32v32h32v-32h32v32h32v-32h32v32h32v-32h32v32h32v-32h32v32h352v-896zM480 864h32v-32h-32v32zM544 864h32v-32h-32v32zM608 864h32v-32h-32v32zM672 864h32v-32h-32v32zM512 832h32v-32h-32v32zM480 800h32v-32h-32v32zM576 832h32v-32h-32v32zM544 800h32v-32h-32v32zM416 864h32v-32h-32v32zM384 832h32v-32h-32v32zM448 832h32v-32h-32v32zM416 800h32v-32h-32v32zM608 800h32v-32h-32v32zM672 800h32v-32h-32v32zM736 864h32v-32h-32v32zM800 864h32v-32h-32v32zM736 800h32v-32h-32v32zM800 800h32v-32h-32v32zM512 768h32v-32h-32v32zM480 736h32v-32h-32v32zM576 768h32v-32h-32v32zM544 736h32v-32h-32v32zM608 736h32v-32h-32v32zM672 736h32v-32h-32v32zM512 704h32v-32h-32v32zM480 672h32v-32h-32v32zM576 704h32v-32h-32v32zM544 672h32v-32h-32v32zM384 768h32v-32h-32v32zM448 768h32v-32h-32v32zM416 736h32v-32h-32v32zM384 704h32v-32h-32v32zM448 704h32v-32h-32v32zM416 672h32v-32h-32v32zM608 672h32v-32h-32v32zM672 672h32v-32h-32v32zM736 736h32v-32h-32v32zM800 736h32v-32h-32v32zM736 672h32v-32h-32v32zM800 672h32v-32h-32v32zM512 640h32v-32h-32v32zM480 608h32v-32h-32v32zM576 640h32v-32h-32v32zM544 608h32v-32h-32v32zM608 608h32v-32h-32v32zM672 608h32v-32h-32v32zM512 576h32v-32h-32v32zM480 544h32v-32h-32v32zM576 576h32v-32h-32v32zM544 544h32v-32h-32v32zM384 640h32v-32h-32v32zM448 640h32v-32h-32v32zM416 608h32v-32h-32v32zM384 576h32v-32h-32v32zM448 576h32v-32h-32v32zM416 544h32v-32h-32v32zM608 544h32v-32h-32v32zM672 544h32v-32h-32v32zM736 608h32v-32h-32v32zM800 608h32v-32h-32v32zM736 544h32v-32h-32v32zM800 544h32v-32h-32v32zM512 512h32v-32h-32v32zM480 480h32v-32h-32v32zM576 512h32v-32h-32v32zM544 480h32v-32h-32v32zM608 480h32v-32h-32v32zM672 480h32v-32h-32v32zM512 448h32v-32h-32v32zM480 416h32v-32h-32v32zM576 448h32v-32h-32v32zM544 416h32v-32h-32v32zM384 512h32v-32h-32v32zM448 512h32v-32h-32v32zM416 480h32v-32h-32v32zM384 448h32v-32h-32v32zM448 448h32v-32h-32v32zM416 416h32v-32h-32v32zM608 416h32v-32h-32v32zM672 416h32v-32h-32v32zM736 480h32v-32h-32v32zM800 480h32v-32h-32v32zM736 416h32v-32h-32v32zM800 416h32v-32h-32v32zM512 384h32v-32h-32v32zM480 352h32v-32h-32v32zM576 384h32v-32h-32v32zM544 352h32v-32h-32v32zM608 352h32v-32h-32v32zM672 352h32v-32h-32v32zM512 320h32v-32h-32v32zM480 288h32v-32h-32v32zM576 320h32v-32h-32v32zM544 288h32v-32h-32v32zM384 384h32v-32h-32v32zM448 384h32v-32h-32v32zM416 352h32v-32h-32v32zM384 320h32v-32h-32v32zM448 320h32v-32h-32v32zM416 288h32v-32h-32v32zM608 288h32v-32h-32v32zM672 288h32v-32h-32v32zM736 352h32v-32h-32v32zM800 352h32v-32h-32v32zM736 288h32v-32h-32v32zM800 288h32v-32h-32v32zM512 256h32v-32h-32v32zM480 224h32v-32h-32v32zM576 256h32v-32h-32v32zM544 224h32v-32h-32v32zM608 224h32v-32h-32v32zM672 224h32v-32h-32v32zM512 192h32v-32h-32v32zM480 160h32v-32h-32v32zM576 192h32v-32h-32v32zM544 160h32v-32h-32v32zM384 256h32v-32h-32v32zM448 256h32v-32h-32v32zM416 224h32v-32h-32v32zM384 192h32v-32h-32v32zM448 192h32v-32h-32v32zM416 160h32v-32h-32v32zM608 160h32v-32h-32v32zM672 160h32v-32h-32v32zM736 224h32v-32h-32v32zM800 224h32v-32h-32v32zM736 160h32v-32h-32v32zM800 160h32v-32h-32v32zM512 128h32v-32h-32v32zM480 96h32v-32h-32v32zM576 128h32v-32h-32v32zM544 96h32v-32h-32v32zM608 96h32v-32h-32v32zM672 96h32v-32h-32v32zM512 64h32v-32h-32v32zM576 64h32v-32h-32v32zM384 128h32v-32h-32v32zM448 128h32v-32h-32v32zM416 96h32v-32h-32v32zM384 64h32v-32h-32v32zM448 64h32v-32h-32v32zM736 96h32v-32h-32v32zM800 96h32v-32h-32v32z"/>
<glyph unicode="" d="M986.51 922.51c-49.988 49.986-131.032 49.986-181.020 0l-172.118-172.118-121.372 121.372-135.764-135.764 106.426-106.426-472.118-472.118c-8.048-8.048-11.468-18.958-10.3-29.456h-0.244v-160c0-17.674 14.328-32 32-32h160c0 0 2.664 0 4 0 9.212 0 18.426 3.516 25.456 10.544l472.118 472.118 106.426-106.426 135.764 135.764-121.372 121.372 172.118 172.118c49.986 49.988 49.986 131.032 0 181.020zM173.090 0h-109.090v109.090l469.574 469.572 109.088-109.088-469.572-469.574z"/>
<glyph unicode="" d="M986.51 922.51c-49.988 49.986-131.032 49.986-181.020 0l-172.118-172.118-121.372 121.372-135.764-135.764 106.426-106.426-472.118-472.118c-8.048-8.048-11.468-18.958-10.3-29.456h-0.244v-160c0-17.674 14.328-32 32-32h160c0 0 2.664 0 4 0 9.212 0 18.426 3.516 25.456 10.544l472.118 472.118 106.426-106.426 135.764 135.764-121.372 121.372 172.118 172.118c49.986 49.988 49.986 131.032 0 181.020zM493.088 320h-218.176l258.664 258.662 109.088-109.088-149.576-149.574z"/>
<glyph unicode="" d="M768 640h-112c-64 0-16 64-16 192 0 15.11-1.8 26.614-4.948 35.22-15.302 53.558-64.58 92.78-123.052 92.78-58.47 0-107.75-39.222-123.052-92.78-3.146-8.606-4.948-20.11-4.948-35.22 0-128 48-192-16-192h-112v-128h128v-496c0-8.8 7.2-16 16-16h32c8.8 0 16-7.2 16-16v-32c0-8.8 7.2-16 16-16h96c8.8 0 16 7.2 16 16v32c0 8.8 7.2 16 16 16h32c8.8 0 16 7.2 16 16v496h128v128zM576 62.392c-31.298-6.378-56.014-31.094-62.392-62.392h-3.214c-6.38 31.298-31.094 56.014-62.392 62.392v449.608h128v-449.608z"/>
<glyph unicode="" d="M864.626 486.838c-65.754 183.44-205.11 348.15-352.626 473.162-147.516-125.012-286.87-289.722-352.626-473.162-40.664-113.436-44.682-236.562 12.584-345.4 65.846-125.14 198.632-205.438 340.042-205.438s274.196 80.298 340.040 205.44c57.27 108.838 53.25 231.962 12.586 345.398zM738.764 201.044c-43.802-83.252-132.812-137.044-226.764-137.044-55.12 0-108.524 18.536-152.112 50.652 13.242-1.724 26.632-2.652 40.112-2.652 117.426 0 228.668 67.214 283.402 171.242 44.878 85.292 40.978 173.848 23.882 244.338 14.558-28.15 26.906-56.198 36.848-83.932 22.606-63.062 40.024-156.34-5.368-242.604z"/>
<glyph unicode="" d="M512 831.084c48.792-46.376 92.656-94.728 130.958-144.384 59.562-77.226 103.738-155.368 131.298-232.256 24.772-69.102 43.632-171.742-7.176-268.304-49.268-93.636-149.392-154.14-255.080-154.14-105.69 0-205.814 60.504-255.084 154.14-50.806 96.562-31.946 199.204-7.172 268.304 27.558 76.886 71.734 155.028 131.298 232.254 38.302 49.658 82.168 98.010 130.958 144.386v0zM512 960c-147.516-125.012-286.87-289.722-352.626-473.162-40.664-113.436-44.682-236.56 12.584-345.4 65.846-125.14 198.632-205.438 340.042-205.438 141.408 0 274.196 80.298 340.040 205.44 57.27 108.838 53.25 231.962 12.586 345.4-65.754 183.438-205.11 348.148-352.626 473.16v0z"/>
<glyph unicode="" d="M1005.256 45.256l-832 832-90.51-90.51 148.86-148.86c-28.992-48.528-53.584-99.028-72.232-151.046-40.664-113.436-44.682-236.562 12.584-345.4 65.846-125.142 198.632-205.44 340.042-205.44 111.326 0 217.296 49.776 289.478 132.010l113.266-113.266 90.512 90.512zM864.626 486.838c-65.754 183.44-205.11 348.15-352.626 473.162-51.536-43.674-102.060-92.206-148.814-144.676l530.414-530.414c5.77 67.46-5.454 136.312-28.974 201.928z"/>
<glyph unicode="" d="M1024 384v384h-192v64c0 35.2-28.8 64-64 64h-704c-35.2 0-64-28.8-64-64v-192c0-35.2 28.8-64 64-64h704c35.2 0 64 28.8 64 64v64h128v-256h-576v-128h-32c-17.674 0-32-14.326-32-32v-320c0-17.674 14.326-32 32-32h128c17.674 0 32 14.326 32 32v320c0 17.674-14.326 32-32 32h-32v64h576zM768 768h-704v64h704v-64z"/>
<glyph unicode="" d="M992 256h-320c-53.020 0-96 42.98-96 96v234.94c74.57 26.36 128 97.464 128 181.060 0 106.040-85.96 192-192 192s-192-85.96-192-192c0-83.596 53.43-154.7 128-181.060v-234.94c0-53.020-42.98-96-96-96h-320c-17.672 0-32-14.326-32-32v-128c0-17.674 14.328-32 32-32h960c17.674 0 32 14.326 32 32v128c0 17.674-14.326 32-32 32zM64 32v-64c0-17.674 14.328-32 32-32h832c17.674 0 32 14.326 32 32v64h-896z"/>
<glyph unicode="" d="M959.884 832c0.040-0.034 0.082-0.076 0.116-0.116v-767.77c-0.034-0.040-0.076-0.082-0.116-0.116h-895.77c-0.040 0.034-0.082 0.076-0.114 0.116v767.772c0.034 0.040 0.076 0.082 0.114 0.114h895.77zM960 896h-896c-35.2 0-64-28.8-64-64v-768c0-35.2 28.8-64 64-64h896c35.2 0 64 28.8 64 64v768c0 35.2-28.8 64-64 64v0zM832 672c0-53.020-42.98-96-96-96s-96 42.98-96 96 42.98 96 96 96 96-42.98 96-96zM896 128h-768v128l224 384 256-320h64l224 192z"/>
<glyph unicode="" d="M832 608c0-53.019-42.981-96-96-96s-96 42.981-96 96c0 53.019 42.981 96 96 96s96-42.981 96-96zM0 768v-640c0-35.2 28.798-64 64-64h384v63.998h-383.886c-0.040 0.034-0.082 0.076-0.114 0.116v639.772c0.034 0.040 0.076 0.082 0.114 0.114h383.886v64h-384c-35.2 0-64-28.8-64-64zM960 832h-384v128h-64v-1024h64v128h384c35.2 0 64 28.8 64 64v640c0 35.2-28.8 64-64 64zM960 128.114c-0.036-0.040-0.076-0.082-0.118-0.116h-383.882v64.002h320v320l-224-192h-64l-32 40v408h383.882c0.042-0.034 0.082-0.076 0.118-0.116v-639.77zM128 256v-64h320v328l-96 120z"/>
<glyph unicode="" d="M1088 832h-64v64c0 35.2-28.8 64-64 64h-896c-35.2 0-64-28.8-64-64v-768c0-35.2 28.8-64 64-64h64v-64c0-35.2 28.8-64 64-64h896c35.2 0 64 28.8 64 64v768c0 35.2-28.8 64-64 64zM128 768v-640h-63.886c-0.040 0.034-0.082 0.076-0.114 0.116v767.77c0.034 0.040 0.076 0.082 0.114 0.114h895.77c0.040-0.034 0.082-0.076 0.116-0.116v-63.884h-768c-35.2 0-64-28.8-64-64v0zM1088 0.116c-0.034-0.040-0.076-0.082-0.116-0.116h-895.77c-0.040 0.034-0.082 0.076-0.114 0.116v767.77c0.034 0.040 0.076 0.082 0.114 0.114h895.77c0.040-0.034 0.082-0.076 0.116-0.116v-767.768zM960 608c0-53.020-42.98-96-96-96s-96 42.98-96 96 42.98 96 96 96 96-42.98 96-96zM1024 64h-768v128l224 384 256-320h64l224 192z" horiz-adv-x="1152"/>
<glyph unicode="" d="M0 896v-960h1024v960h-1024zM896 192h-768v576h768v-576zM832 384l-64 128-128-128-192 320-256-384v-64h640z"/>
<glyph unicode="" d="M768 896h-768v-768h768v768zM704 320h-640v512h640v-512zM512 640l-45.714-91.428-146.286 219.428-192-384h512zM832 713.246v-649.246h-711.056l-5.016-47.722 763.794-80.278 80.278 763.792z"/>
<glyph unicode="" d="M864 576l-224-224-192 192-320-320v-96h768v448zM928 832c17.346 0 32-14.654 32-32v-704c0-17.346-14.654-32-32-32h-832c-17.346 0-32 14.654-32 32v704c0 17.346 14.654 32 32 32h832zM928 896h-832c-52.8 0-96-43.2-96-96v-704c0-52.8 43.2-96 96-96h832c52.8 0 96 43.2 96 96v704c0 52.8-43.2 96-96 96v0z"/>
<glyph unicode="" d="M896 768v-640h-768v640h768zM928 896h-832c-52.8 0-96-43.2-96-96v-704c0-52.8 43.2-96 96-96h832c52.8 0 96 43.2 96 96v704c0 52.8-43.2 96-96 96v0zM640 352l-192 192-256-256v-96h640v352z"/>
<glyph unicode="" d="M304 352c0-114.876 93.124-208 208-208s208 93.124 208 208-93.124 208-208 208-208-93.124-208-208zM960 704h-224c-16 64-32 128-96 128h-256c-64 0-80-64-96-128h-224c-35.2 0-64-28.8-64-64v-576c0-35.2 28.8-64 64-64h896c35.2 0 64 28.8 64 64v576c0 35.2-28.8 64-64 64zM512 68c-156.85 0-284 127.148-284 284 0 156.85 127.15 284 284 284 156.852 0 284-127.15 284-284 0-156.852-127.146-284-284-284zM960 512h-128v64h128v-64z"/>
<glyph unicode="" d="M327.25 512l255.806 443.068c-23.228 3.226-46.94 4.932-71.056 4.932-139.708 0-266.322-55.982-358.702-146.706l173.952-301.294zM475.052 640h511.692c-59.172 146.166-183.862 258.776-337.672 301.414l-174.020-301.414zM364.2 320l-255.798 443.056c-67.916-86.878-108.402-196.236-108.402-315.056 0-44.2 5.6-87.088 16.13-128h348.070zM659.802 576l255.798-443.056c67.914 86.878 108.4 196.236 108.4 315.056 0 44.198-5.602 87.088-16.13 128h-348.068zM548.948 256h-511.692c59.172-146.166 183.862-258.776 337.67-301.414l174.022 301.414zM696.75 384.002l-255.806-443.070c23.228-3.224 46.942-4.932 71.056-4.932 139.708 0 266.324 55.98 358.704 146.706l-173.954 301.296z"/>
<glyph unicode="" d="M288 384h-64v-448h64c17.6 0 32 14.4 32 32v384c0 17.6-14.4 32-32 32zM736 384c-17.602 0-32-14.4-32-32v-384c0-17.6 14.398-32 32-32h64v448h-64zM1024 448c0 282.77-229.23 512-512 512s-512-229.23-512-512c0-61.412 10.83-120.29 30.656-174.848-19.478-33.206-30.656-71.87-30.656-113.152 0-112.846 83.448-206.188 192-221.716v443.418c-31.914-4.566-61.664-15.842-87.754-32.378-5.392 26.718-8.246 54.364-8.246 82.676 0 229.75 186.25 416 416 416s416-186.25 416-416c0-28.314-2.83-55.968-8.22-82.696-26.1 16.546-55.854 27.848-87.78 32.418v-443.44c108.548 15.532 192 108.874 192 221.714 0 41.274-11.178 79.934-30.648 113.138 19.828 54.566 30.648 113.452 30.648 174.866z"/>
<glyph unicode="" d="M828.784 828.784c-84.616 84.616-197.12 131.216-316.784 131.216s-232.166-46.6-316.782-131.216-131.218-197.118-131.218-316.784v-224c0-53.020 42.98-96 96-96s96 42.98 96 96v128c0 53.020-42.98 96-96 96-10.724 0-21.026-1.786-30.656-5.030v5.030c16.318 196.82 181.696 352 382.656 352s366.34-155.18 382.656-352v-5.030c-9.63 3.244-19.93 5.030-30.656 5.030-53.020 0-96-42.98-96-96v-128c0-53.020 42.98-96 96-96 11.222 0 21.988 1.946 32 5.484v-101.484c0-17.644-14.356-32-32-32h-165.484c-13.182 37.282-48.718 64-90.516 64-53.020 0-96-42.98-96-96s42.98-96 96-96c41.796 0 77.334 26.718 90.516 64h165.484c52.936 0 96 43.064 96 96v416c0 119.666-46.6 232.166-131.216 316.784z"/>
<glyph unicode="" d="M812.158 665.588c-87.050 122.21-78.88 35.914-163.208 279.684l-89.178 14.728-99.218-732.95c-223.632 127.958-364.672-3.468-328.984-168.886 18.92-87.712 161.432-170.274 301.8-88.78 66.342 39.89 87.672 104.22 96.14 149.838l70.876 543.852c252.89-222.974 172.142-357.892 119.85-513.244 107.498 44.334 275.88 239.888 91.922 515.758z"/>
<glyph unicode="" d="M928 704h-832c-17.6 0-32-14.4-32-32v-704c0-17.6 14.4-32 32-32h832c17.6 0 32 14.4 32 32v704c0 17.6-14.4 32-32 32zM768 160c0-53.020-57.306-96-128-96-70.692 0-128 42.98-128 96s57.308 96 128 96c23.322 0 45.168-4.702 64-12.876v186.59l-256-91.43v-242.284c0-53.020-57.306-96-128-96-70.692 0-128 42.98-128 96s57.308 96 128 96c23.322 0 45.168-4.702 64-12.876v268.876l384 128v-416zM864 768h-704c-17.672 0-32 14.328-32 32s14.328 32 32 32h704c17.674 0 32-14.328 32-32s-14.326-32-32-32zM800 896h-576c-17.672 0-32 14.328-32 32s14.328 32 32 32h576c17.674 0 32-14.328 32-32s-14.326-32-32-32z"/>
<glyph unicode="" d="M800 640c-123.71 0-224-100.288-224-224 0-34.358 7.746-66.902 21.57-96h-171.14c13.826 29.098 21.57 61.642 21.57 96 0 123.712-100.288 224-224 224s-224-100.288-224-224c0-123.71 100.288-224 224-224h576c123.71 0 224 100.29 224 224 0 123.712-100.288 224-224 224zM128 416c0 53.020 42.98 96 96 96s96-42.98 96-96-42.98-96-96-96-96 42.98-96 96zM800 320c-53.020 0-96 42.98-96 96s42.98 96 96 96 96-42.98 96-96-42.98-96-96-96z"/>
<glyph unicode="" d="M0 960v-1024h960v1024h-960zM192 0h-128v896h64v-640h64v-256zM448.002 0h-192v256h64v640h64v-640h64v-256zM704 0h-192v256h64v640h64v-640h64v-256zM896 0h-128v256h64v640h64v-896z"/>
<glyph unicode="" d="M800 960h-576c-52.8 0-96-43.2-96-96v-832c0-52.8 43.2-96 96-96h576c52.8 0 96 43.2 96 96v832c0 52.8-43.198 96-96 96zM512 896c70.694 0 128-57.308 128-128s-57.306-128-128-128c-70.692 0-128 57.308-128 128s57.308 128 128 128zM512 0c-141.384 0-256 114.616-256 256s114.616 256 256 256 256-114.616 256-256-114.614-256-256-256zM512 448c-106.040 0-192-85.96-192-192s85.96-192 192-192 192 85.96 192 192-85.96 192-192 192zM512 192c-35.346 0-64 28.654-64 64s28.654 64 64 64c35.346 0 64-28.654 64-64s-28.654-64-64-64zM576 768c0-35.346-28.654-64-64-64s-64 28.654-64 64c0 35.346 28.654 64 64 64s64-28.654 64-64z"/>
<glyph unicode="" d="M981.188 799.892c-143.632 20.65-302.332 32.108-469.186 32.108-166.86 0-325.556-11.458-469.194-32.108-27.53-107.726-42.808-226.75-42.808-351.892 0-125.14 15.278-244.166 42.808-351.89 143.638-20.652 302.336-32.11 469.194-32.11 166.854 0 325.552 11.458 469.186 32.11 27.532 107.724 42.812 226.75 42.812 351.89 0 125.142-15.28 244.166-42.812 351.892zM384.002 256v384l320-192-320-192z"/>
<glyph unicode="" d="M78.302 697.46l865.444 231.884 49.69-185.452-865.444-231.884zM128 512v-576h896v576h-896zM448 64v320l256-160-256-160z"/>
<glyph unicode="" d="M64 832c-35.346 0-64-28.654-64-64v-256h1024v320h-960zM64 576v32l160 160h128l-192-192h-96zM288 576l192 192h128l-192-192h-128zM544 576l192 192h128l-192-192h-128zM960 608l-32-32h-128l160 160v-128zM0 448h1024v-512h-1024v512z"/>
<glyph unicode="" d="M1024 96c0-53.020-57.306-96-128-96-70.696 0-128 42.98-128 96s57.306 96 128 96c23.32 0 45.168-4.704 64-12.876v186.59l-256-91.43v-242.284c0-53.020-57.306-96-128-96s-128 42.98-128 96 57.306 96 128 96c23.322 0 45.168-4.704 64-12.876v268.876l384 128v-416zM288 768c-52.934 0-96-43.066-96-96s43.066-96 96-96 96 43.066 96 96-43.064 96-96 96zM544 896h-140.222l-23.156 46.31c-5.42 10.842-16.5 17.69-28.622 17.69h-128c-12.12 0-23.2-6.848-28.622-17.69l-23.154-46.31h-140.224c-17.672 0-32-14.328-32-32v-384c0-17.674 14.328-32 32-32h512c17.674 0 32 14.326 32 32v384c0 17.672-14.326 32-32 32zM288 512c-88.224 0-160 71.776-160 160s71.776 160 160 160 160-71.776 160-160-71.774-160-160-160z"/>
<glyph unicode="" d="M912 960h-864c-26.4 0-48-21.6-48-48v-736c0-26.4 21.6-48 48-48h285.088l-130.544-130.544c-14.058-14.058-14.058-36.852 0-50.91 7.030-7.030 16.244-10.546 25.456-10.546s18.426 3.516 25.456 10.544l181.456 181.456h13.088v-160c0-17.674 14.328-32 32-32s32 14.326 32 32v160h13.090l181.456-181.456c7.028-7.028 16.242-10.544 25.454-10.544s18.426 3.516 25.456 10.544c14.060 14.058 14.060 36.852 0 50.91l-130.546 130.546h285.090c26.4 0 48 21.6 48 48v736c0 26.4-21.6 48-48 48zM384 768l256-160-256-160v320zM800 256h-640c-17.672 0-32 14.326-32 32s14.328 32 32 32h640c17.674 0 32-14.326 32-32s-14.326-32-32-32z"/>
<glyph unicode="" d="M512 960c-282.77 0-512-229.23-512-512s229.23-512 512-512 512 229.23 512 512-229.23 512-512 512zM512 846.382c60.374 0 109.316-48.942 109.316-109.318 0-60.374-48.944-109.316-109.316-109.316-60.376 0-109.316 48.942-109.316 109.316 0 60.376 48.94 109.318 109.316 109.318zM115.556 545.272c0 60.374 48.942 109.316 109.318 109.316 60.374 0 109.316-48.942 109.316-109.316 0-60.376-48.942-109.318-109.316-109.318-60.374 0.002-109.318 48.944-109.318 109.318zM338.402 114.712c-60.374 0-109.316 48.942-109.316 109.316s48.944 109.318 109.316 109.318c60.374 0 109.318-48.944 109.318-109.318s-48.944-109.316-109.318-109.316zM512 384c-35.346 0-64 28.654-64 64s28.654 64 64 64c35.346 0 64-28.654 64-64s-28.654-64-64-64zM685.598 114.062c-60.376 0-109.316 48.942-109.316 109.316s48.942 109.318 109.316 109.318c60.374 0 109.316-48.944 109.316-109.318s-48.944-109.316-109.316-109.316zM799.124 435.304c-60.374 0-109.316 48.942-109.316 109.318 0 60.374 48.944 109.316 109.316 109.316 60.376 0 109.318-48.942 109.318-109.316 0.002-60.374-48.94-109.318-109.318-109.318z"/>
<glyph unicode="" d="M0 960v-1024h1024v1024h-1024zM640 896h128v-128h-128v128zM448 896h128v-128h-128v128zM256 896h128v-128h-128v128zM64 896h128v-128h-128v128zM64 704h384v-512h-384v512zM192 0h-128v128h128v-128zM384 0h-128v128h128v-128zM576 0h-128v128h128v-128zM768 0h-128v128h128v-128zM960 0h-128v128h128v-128zM960 192h-448v512h448v-512zM960 768h-128v128h128v-128z"/>
<glyph unicode="" d="M0 896v-896h1024v896h-1024zM192 64h-128v128h128v-128zM192 256h-128v128h128v-128zM192 512h-128v128h128v-128zM192 704h-128v128h128v-128zM768 64h-512v320h512v-320zM768 512h-512v320h512v-320zM960 64h-128v128h128v-128zM960 256h-128v128h128v-128zM960 512h-128v128h128v-128zM960 704h-128v128h128v-128z"/>
<glyph unicode="" d="M0 832v-768h1024v768h-1024zM192 128h-128v128h128v-128zM192 384h-128v128h128v-128zM192 640h-128v128h128v-128zM768 128h-512v640h512v-640zM960 128h-128v128h128v-128zM960 384h-128v128h128v-128zM960 640h-128v128h128v-128z"/>
<glyph unicode="" d="M0 832v-768h1024v768h-1024zM192 128h-128v128h128v-128zM192 384h-128v128h128v-128zM192 640h-128v128h128v-128zM768 128h-512v640h512v-640zM960 128h-128v128h128v-128zM960 384h-128v128h128v-128zM960 640h-128v128h128v-128zM384 640v-384l256 192z"/>
<glyph unicode="" d="M384 672c0 88.366 71.634 160 160 160s160-71.634 160-160c0-88.366-71.634-160-160-160s-160 71.634-160 160zM0 672c0 88.366 71.634 160 160 160s160-71.634 160-160c0-88.366-71.634-160-160-160s-160 71.634-160 160zM768 352v96c0 35.2-28.8 64-64 64h-640c-35.2 0-64-28.8-64-64v-320c0-35.2 28.8-64 64-64h640c35.2 0 64 28.8 64 64v96l256-160v448l-256-160zM640 192h-512v192h512v-192z"/>
<glyph unicode="" d="M978.84 703.748c-10.588 0-21.458-3.722-31.436-10.766l-179.404-126.614v105.632c0 52.8-43.2 96-96 96h-576c-52.8 0-96-43.2-96-96v-448c0-52.8 43.2-96 96-96h576c52.8 0 96 43.2 96 96v105.63l179.402-126.614c9.978-7.042 20.848-10.764 31.434-10.766 0.002 0 0.002 0 0.006 0 14.088 0 26.954 6.496 35.292 17.822 6.456 8.77 9.868 20.054 9.868 32.636v410.582c-0.002 33.126-22.72 50.458-45.162 50.458z"/>
<glyph unicode="" d="M96 768c-52.8 0-96-43.2-96-96v-448c0-23.126 8.29-44.412 22.042-61.032l403.354 605.032h-329.396zM978.84 703.748c-10.588 0-21.458-3.722-31.438-10.766l-179.402-126.614v105.632c0 52.8-43.202 96-96 96h-16.978l88.916 133.374-79.876 53.252-640-960 79.876-53.25 124.418 186.624h443.644c52.798 0 96 43.2 96 96v105.628l179.4-126.614c9.978-7.042 20.85-10.764 31.436-10.766 0.002 0 0.002 0 0.006 0 14.088 0 26.954 6.496 35.292 17.822 6.458 8.77 9.87 20.052 9.87 32.634v410.586c-0.004 33.126-22.722 50.458-45.164 50.458z"/>
<glyph unicode="" d="M978.84 703.748c-10.588 0-21.458-3.722-31.436-10.766l-179.404-126.614v105.632c0 52.8-43.2 96-96 96h-576c-52.8 0-96-43.2-96-96v-448c0-52.8 43.2-96 96-96h576c52.8 0 96 43.2 96 96v105.628l179.402-126.614c9.978-7.042 20.848-10.764 31.434-10.766 0.002 0 0.002 0 0.006 0 14.088 0 26.956 6.496 35.292 17.822 6.456 8.77 9.868 20.052 9.868 32.634v410.586c-0.002 33.126-22.72 50.458-45.162 50.458zM256 256v384l320-192-320-192z"/>
<glyph unicode="" d="M864 768h-512c-88 0-160-72-160-160v-512c0-88 72-160 160-160h512c88 0 160 72 160 160v512c0 88-72 160-160 160zM416 64c-53.020 0-96 42.98-96 96s42.98 96 96 96 96-42.98 96-96-42.98-96-96-96zM416 448c-53.020 0-96 42.98-96 96s42.98 96 96 96 96-42.98 96-96-42.98-96-96-96zM608 256c-53.020 0-96 42.98-96 96s42.98 96 96 96 96-42.98 96-96-42.98-96-96-96zM800 64c-53.020 0-96 42.98-96 96s42.98 96 96 96 96-42.98 96-96-42.98-96-96-96zM800 448c-53.020 0-96 42.98-96 96s42.98 96 96 96 96-42.98 96-96-42.98-96-96-96zM828.76 832c-14.93 72.804-79.71 128-156.76 128h-512c-88 0-160-72-160-160v-512c0-77.046 55.196-141.83 128-156.76v636.76c0 35.2 28.8 64 64 64h636.76z"/>
<glyph unicode="" d="M974.048 694.5c-33.744 33.744-80.114 49.952-131.5 49.952-68.888 0-146.808-29.116-215.532-84.124-16.264 49.816-46.48 87.516-83.018 101.622v70.050h96v64h-96v64h-64v-64h-96v-64h96v-70.048c-36.536-14.106-66.752-51.804-83.016-101.618-68.722 55.006-146.642 84.124-215.53 84.12-51.386-0.004-97.758-16.208-131.5-49.952-87.478-87.478-57.084-259.7 67.882-384.666 23.358-23.358 48.372-43.388 74.166-59.986v-93.764c87.658-17.57 198.908-28.086 320-28.086s232.342 10.516 320 28.086v93.76c25.794 16.596 50.808 36.628 74.166 59.986 124.966 124.968 155.36 297.192 67.882 384.668zM163.092 581.356c1.078 0.72 6.846 3.096 18.362 3.098h0.016c31.85 0 87.628-18.586 140.010-70.968 34.574-34.574 59.32-76.362 67.896-114.652 6.118-27.32 1.534-41.496-0.014-43.736-1.072-0.718-6.832-3.098-18.36-3.098-31.856 0-87.644 18.588-140.030 70.972-34.576 34.578-59.324 76.37-67.896 114.66-6.116 27.312-1.532 41.482 0.016 43.724zM860.922 537.62c-8.574-38.29-33.32-80.078-67.892-114.648-52.386-52.386-108.172-70.972-140.030-70.972-11.524 0-17.288 2.376-18.36 3.096-1.546 2.238-6.132 16.408-0.018 43.724 8.572 38.292 33.32 80.082 67.896 114.66 52.384 52.384 108.174 70.972 140.030 70.972 11.528 0 17.29-2.376 18.36-3.096 1.548-2.24 6.134-16.416 0.014-43.736zM192 58.336v-94.25c87.658-17.57 198.908-28.086 320-28.086s232.342 10.516 320 28.086v94.25c-93.828-17.25-203.96-26.336-320-26.336s-226.172 9.086-320 26.336z"/>
<glyph unicode="" d="M512 0c-114.588 0-225.762 9.934-313.042 27.968-2.338 0.482-4.656 0.974-6.958 1.468v-65.352c87.658-17.568 198.908-28.084 320-28.084s232.342 10.516 320 28.086v65.352c-2.302-0.494-4.62-0.986-6.958-1.468-87.278-18.036-198.452-27.97-313.042-27.97zM768 98.006v29.994l-32 64h-448l-32-64v-29.994c75.31-10.892 162.74-17.128 256-17.128 93.262-0.002 180.69 6.236 256 17.128zM1001.508 678.344c-29.994 29.994-78.622 29.994-108.614 0-25.45-25.448-29.292-64.308-11.552-93.822l-195.322-117.194 38.506 181.716c33.68-7.162 69.17 9.124 84.948 41.47 18.594 38.124 2.762 84.1-35.36 102.694-38.124 18.594-84.102 2.762-102.696-35.362-15.778-32.348-6.76-70.342 19.622-92.472l-118.208-140.696-42.202 168.806c33.41 8.326 58.17 38.522 58.17 74.512 0 42.416-34.384 76.8-76.798 76.8-42.416 0-76.8-34.384-76.8-76.8 0-35.99 24.76-66.186 58.172-74.512l-42.202-168.806-118.208 140.696c26.38 22.13 35.398 60.124 19.622 92.472-18.594 38.124-64.572 53.956-102.696 35.362-38.122-18.594-53.954-64.572-35.36-102.694 15.776-32.348 51.268-48.632 84.948-41.47l38.504-181.716-195.32 117.194c17.74 29.514 13.894 68.374-11.554 93.822-29.992 29.994-78.62 29.994-108.614 0-29.99-29.992-29.99-78.618 0.002-108.612 25.448-25.448 64.308-29.292 93.82-11.554l181.306-302.178h428.756l181.306 302.178c29.512-17.738 68.372-13.894 93.82 11.554 29.994 29.994 29.994 78.622 0.004 108.612z"/>
<glyph unicode="" d="M896 960h128v-128h-128zM896 704h128v-128h-128zM896 448h128v-128h-128zM896 192h128v-128h-128zM768 832h128v-128h-128zM768 576h128v-128h-128zM768 320h128v-128h-128zM768 64h128v-128h-128zM640 960h128v-128h-128zM640 704h128v-128h-128zM640 448h128v-128h-128zM640 192h128v-128h-128zM512 832h128v-128h-128zM512 576h128v-128h-128zM512 320h128v-128h-128zM512 64h128v-128h-128zM384 960h128v-128h-128zM384 704h128v-128h-128zM384 448h128v-128h-128zM384 192h128v-128h-128zM256 832h128v-128h-128zM256 576h128v-128h-128zM256 320h128v-128h-128zM256 64h128v-128h-128zM128 960h128v-128h-128zM128 704h128v-128h-128zM128 448h128v-128h-128zM128 192h128v-128h-128zM0 832h128v-128h-128zM0 576h128v-128h-128zM0 320h128v-128h-128zM0 64h128v-128h-128z"/>
<glyph unicode="" d="M128 576h-128v-320h128v64l128.018-36.578c-0.004-0.484-0.018-0.968-0.018-1.458v-89.964c0-35.204 28.798-64 64-64h128c35.2 0 64 28.796 64 64v18.286l320-91.43v594.284l-704-201.14v64zM320 265.14l127.856-36.53v-36.61h-127.856v73.14zM896 731.428v-630.858l128-36.57v704z"/>
<glyph unicode="" d="M896 768h-768c-70.4 0-128-57.6-128-128v-448c0-70.4 57.6-128 128-128h768c70.398 0 128 57.6 128 128v448c0 70.4-57.602 128-128 128zM320 256h-64l-128 213.334v-213.334h-64v320h64l128-213.334v213.334h64v-320zM576 512h-128v-64h128v-64h-128v-64h128v-63.998l-192-0.002v320h192v-64zM960 256h-95.998l-64.002 128-64-128h-96v320h64v-256l64 128h64.002l63.998-127.996v255.996h64v-320z"/>
<glyph unicode="" d="M640 384c105.87 0 201.87-43.066 271.402-112.598l-90.468-90.468c-46.354 46.356-110.356 75.066-180.934 75.066s-134.578-28.71-180.934-75.066l-90.468 90.468c69.532 69.532 165.532 112.598 271.402 112.598zM187.452 452.548c120.88 120.88 281.598 187.452 452.548 187.452s331.668-66.572 452.55-187.452l-90.51-90.508c-96.706 96.704-225.28 149.96-362.040 149.96-136.762 0-265.334-53.256-362.038-149.962l-90.51 90.51zM988.784 825.562c106.702-45.132 202.516-109.728 284.782-191.996v0l-90.508-90.508c-145.056 145.056-337.92 224.942-543.058 224.942-205.14 0-398-79.886-543.058-224.942l-90.51 90.51c82.268 82.266 178.082 146.862 284.784 191.994 110.504 46.738 227.852 70.438 348.784 70.438s238.278-23.7 348.784-70.438zM576 64c0 35.346 28.654 64 64 64s64-28.654 64-64c0-35.346-28.654-64-64-64s-64 28.654-64 64z" horiz-adv-x="1280"/>
<glyph unicode="" d="M640 640c0 70.692-57.306 128-128 128-70.692 0-128-57.308-128-128 0-45.354 23.608-85.166 59.184-107.904l-162.572-596.096h78.776l17.454 64h270.316l17.456-64h78.776l-162.572 596.096c35.574 22.738 59.182 62.55 59.182 107.904zM594.794 192h-165.588l17.454 64h130.68l17.454-64zM464.116 320l47.884 175.578 47.884-175.578h-95.768zM394.296 64l17.456 64h200.498l17.454-64h-235.408zM664.348 921.474c99.852-54.158 167.652-159.898 167.652-281.474s-67.8-227.316-167.652-281.474c44.066 70.126 71.652 170.27 71.652 281.474s-27.586 211.348-71.652 281.474zM856.348 921.474c99.852-54.158 167.652-159.898 167.652-281.474s-67.8-227.316-167.652-281.474c44.066 70.126 71.652 170.27 71.652 281.474s-27.586 211.348-71.652 281.474zM359.652 358.526c-99.852 54.16-167.652 159.898-167.652 281.474s67.8 227.314 167.652 281.474c-44.068-70.126-71.652-170.27-71.652-281.474s27.584-211.348 71.652-281.474zM0 640c0 121.576 67.8 227.314 167.652 281.474-44.068-70.126-71.652-170.27-71.652-281.474s27.584-211.348 71.652-281.474c-99.852 54.16-167.652 159.898-167.652 281.474z"/>
<glyph unicode="" d="M768 832v128h-128v-128h-256v128h-128v-128h-256v-128h1024v128zM128 320h768v-128h-768zM128 576h768v-128h-768zM128-64h640l128 128h-768z"/>
<glyph unicode="" d="M512 289.797l52.734 52.734v-158.203h105.469l-158.203-158.203-158.203 158.203h105.469v158.203zM512 604.567l-52.734-51.099v158.203h-105.469l158.203 158.203 158.203-158.203h-105.469v-158.203zM353.797 448l52.734-52.734h-158.203v-105.469l-158.203 158.203 158.203 158.203v-105.469h158.203zM668.569 448l-51.099 52.734h158.203v105.469l158.203-158.203-158.203-158.203v105.469h-158.203z"/>
<glyph unicode="" d="M768 384c0-141.248-114.752-256-256-256s-256 114.752-256 256 114.752 256 256 256h128l0.736-128.64 192.384 192.64-192.384 192v-128h-128.736c-212 0-384-172-384-384s172-384 384-384 384 172 384 384h-128z"/>
<glyph unicode="" d="M256 320v-192h128l-192-192-192 192h128v192zM128 576v192h-128l192 192 192-192h-128v-192z" horiz-adv-x="384"/>
<glyph unicode="" d="M384 384h-192v-128l-192 192 192 192v-128h192zM640 512h192v128l192-192-192-192v128h-192z"/>
<glyph unicode="" d="M960 960c-35.346 0-64-28.654-64-64 0-11.216 2.892-21.752 7.962-30.918l-352.024-251.586c34.188-48.832 76.726-91.372 125.562-125.552l251.58 352.018c9.168-5.068 19.706-7.962 30.92-7.962 35.346 0 64 28.654 64 64s-28.654 64-64 64zM862.458 616.034l-39.608-55.42c38.71-51.116 69.236-102.548 89.138-150.878 27.338-66.396 30.942-121.026 9.402-142.562-9.268-9.264-24.44-13.958-45.104-13.958-74.192 0-212.444 63.388-354.064 205.012-83.302 83.302-147.812 174.434-181.648 256.604-27.34 66.398-30.944 121.024-9.404 142.562 9.262 9.262 24.438 13.96 45.102 13.96 55.456 0 146.706-35.426 248.4-112.46l55.33 39.544c-37.176 29.192-75.010 54.708-112.356 75.576-71.954 40.204-138.922 61.454-193.666 61.454-43.458 0-79.994-13.564-105.656-39.226-12.86-12.86-22.526-28.162-29.050-45.57-30.316-65.124-47.274-137.718-47.274-214.286 0-280.772 227.612-508.386 508.386-508.386 76.864 0 149.72 17.092 215.040 47.624 17.208 6.59 32.308 16.198 44.812 28.702 48.432 48.43 52.030 131.134 10.13 232.88-23.78 57.76-60.898 118.982-107.91 178.828zM576-32v32c0 15.84-1.932 31.226-5.546 45.952-96.494 21.038-186.18 65.482-262.208 130.514-68.368-29.388-116.246-97.332-116.246-176.466v-32c0-17.674 14.326-32 32-32h320c17.674 0 32 14.326 32 32z"/>
<glyph unicode="" d="M896 576v128h-160.128l32 256h-128l-32-256h-255.936l32 256h-128l-32-256h-223.936v-128h207.936l-31.936-256h-176v-128h160l-32-256h128l32 256h255.936l-32-256h128.064l32 256h224v128h-208l31.872 256h176.128zM559.936 320h-255.936l31.936 256h255.936l-31.936-256z" horiz-adv-x="896"/>
<glyph unicode="" d="M768 960h128v-1024h-128zM512 704h128v-768h-128zM256 448h128v-512h-128zM0 192h128v-256h-128z" horiz-adv-x="896"/>
<glyph unicode="" d="M512 832c-282.752 0-512-379.008-512-379.008s229.248-388.992 512-388.992 512 388.992 512 388.992-229.248 379.008-512 379.008zM512 192c-141.376 0-256 114.624-256 256s114.624 256 256 256 256-114.624 256-256-114.624-256-256-256zM384 448c0 70.692 57.308 128 128 128s128-57.308 128-128c0-70.692-57.308-128-128-128s-128 57.308-128 128z"/>
<glyph unicode="" d="M995.828-35.826c-37.566-37.564-98.45-37.564-136.016 0l-169.726 169.726c-69.776-44.764-152.26-71.434-241.318-71.434-247.83 0-448.768 200.908-448.768 448.768s200.938 448.766 448.768 448.766c247.862 0 448.768-200.904 448.768-448.766 0-89.028-26.704-171.542-71.436-241.352l169.728-169.726c37.562-37.564 37.562-98.418 0-135.982zM448.768 831.782c-177.022 0-320.548-143.494-320.548-320.546s143.526-320.548 320.548-320.548c177.052 0 320.548 143.496 320.548 320.548s-143.496 320.546-320.548 320.546z"/>
<glyph unicode="" d="M995.828-35.828c-37.566-37.562-98.452-37.562-136.016 0l-169.726 169.728c-69.778-44.732-152.262-71.436-241.32-71.436-247.83 0-448.766 200.908-448.766 448.768s200.936 448.768 448.766 448.768c247.862 0 448.768-200.906 448.768-448.768 0-89.058-26.704-171.542-71.436-241.35l169.728-169.696c37.564-37.564 37.564-98.448 0.002-136.014zM448.766 831.78c-177.022 0-320.548-143.526-320.548-320.548 0-177.052 143.526-320.548 320.548-320.548 177.054 0 320.548 143.496 320.548 320.548 0 177.022-143.494 320.548-320.548 320.548zM512.876 318.904h-128.218v128.218h-128.218v128.218h128.218v128.22h128.218v-128.22h128.22v-128.218h-128.22v-128.218z"/>
<glyph unicode="" d="M995.828 100.188l-169.728 169.696c44.732 69.806 71.436 152.292 71.436 241.35 0 247.86-200.908 448.766-448.77 448.766-247.83 0-448.766-200.906-448.766-448.768s200.936-448.768 448.766-448.768c89.058 0 171.542 26.704 241.32 71.436l169.726-169.728c37.564-37.562 98.45-37.562 136.016 0 37.562 37.566 37.562 98.45 0 136.016zM448.766 190.684c-177.022 0-320.548 143.496-320.548 320.548 0 177.022 143.526 320.548 320.548 320.548 177.054 0 320.548-143.526 320.548-320.548 0-177.052-143.494-320.548-320.548-320.548zM256.438 447.124h384.658v128.218h-384.658v-128.218z"/>
<glyph unicode="" d="M512-64c-282.75 0-512 229.218-512 512s229.25 512 512 512c282.782 0 512-229.218 512-512s-229.218-512-512-512zM512 832c-212.062 0-384-171.938-384-384s171.938-384 384-384c212.094 0 384 171.938 384 384s-171.906 384-384 384zM576 192h-128v192h-192v128h192v192h128v-192h192v-128h-192v-192z"/>
<glyph unicode="" d="M512 960c-282.75 0-512-229.25-512-512 0-282.782 229.25-512 512-512 282.782 0 512 229.218 512 512 0 282.75-229.218 512-512 512zM512 64c-212.062 0-384 171.938-384 384s171.938 384 384 384c212.094 0 384-171.938 384-384s-171.906-384-384-384zM256 384h512v128h-512v-128z"/>
<glyph unicode="" d="M512-64c-282.75 0-512 229.218-512 512 0 282.75 229.25 512 512 512s512-229.25 512-512c0-282.782-229.25-512-512-512zM512 832c-212.062 0-384-171.938-384-384s171.938-384 384-384 384 171.938 384 384-171.938 384-384 384zM448 320h128v-128h-128v128zM448 704h128v-320h-128v320z"/>
<glyph unicode="" d="M512-64c-282.75 0-512 229.218-512 512 0 282.75 229.25 512 512 512s512-229.25 512-512c0-282.782-229.25-512-512-512zM512 832c-212.062 0-384-171.938-384-384s171.938-384 384-384 384 171.938 384 384-171.938 384-384 384zM512 704c-106.062 0-192-85.968-192-192h128c0 35.344 28.624 64 64 64s64-28.656 64-64-28.624-64-64-64c-2.45 0-10.216 0-32 0-17.688 0-32-14.344-32-32v-96h128v11.75c74.376 26.438 128 96.782 128 180.25 0 106.032-85.938 192-192 192zM512 256h-64v-64h128v64z"/>
<glyph unicode="" d="M149.932 85.974c-199.94 199.94-199.94 524.132 0 724.074 200.004 199.94 524.134 199.94 724.136 0 199.94-199.942 199.94-524.134 0-724.074-200.002-199.97-524.132-199.97-724.136 0zM783.566 719.546c-150.002 149.97-393.13 149.97-543.070 0-150.002-149.97-150.002-393.1 0-543.070 149.94-149.972 393.068-149.972 543.070 0 149.942 149.972 149.942 393.1 0 543.070zM376.248 221.726l-90.502 90.532 135.752 135.754-135.752 135.752 90.502 90.534 135.752-135.784 135.754 135.784 90.5-90.534-135.752-135.752 135.752-135.754-90.5-90.532-135.754 135.784-135.752-135.784z"/>
<glyph unicode="" d="M651.438 704.75l-193.25-207.25-88.564 94.938-81.624-87.562 173.562-184.688 274.314 294.062zM960 960h-896c-35.376 0-64-28.624-64-64v-896c0-35.376 28.624-64 64-64h896c35.376 0 64 28.624 64 64v896c0 35.376-28.624 64-64 64zM896 256h-192v-192h-384v192h-192v576h768v-576z"/>
<glyph unicode="" d="M960 960h-896c-35.376 0-64-28.624-64-64v-896c0-35.376 28.624-64 64-64h896c35.376 0 64 28.624 64 64v896c0 35.376-28.624 64-64 64zM896 256h-192v-192h-384v192h-192v576h768v-576zM256 512h512v-128h-512zM256 704h512v-128h-512z"/>
<glyph unicode="" d="M768 960h-512l-256-512v-448c0-35.376 28.656-64 64-64h896c35.344 0 64 28.624 64 64v448l-256 512zM896 64h-768v384l192 384h384l192-384v-384zM640 704h-256l-128-256h128v-128h256v128h128z"/>
<glyph unicode="" d="M959.998 832h-895.998c-35.342 0-64-28.624-64-64v-640c0-35.376 28.658-64 64-64h895.998c35.344 0 64.002 28.624 64.002 64v640c0 35.376-28.658 64-64.002 64zM832 704l-320-256-320 256h640zM896 192h-768v448l384-320 384 320v-448z"/>
<glyph unicode="" d="M960-64h-896c-35.344 0-64 28.624-64 64v896c0 35.376 28.656 64 64 64h640l-128-128h-448v-768h768v448l128 128v-640c0-35.376-28.656-64-64-64zM256 192v192l576 576h64l128-128v-64l-576-576h-192zM544 416l352 352-64 64-352-352 64-64zM384 384l-64-64v-64h64l64 64-64 64z"/>
<glyph unicode="" d="M256 256h320v-64h-320zM256 384h320v-64h-320zM256 704h320v-256h-320zM960 832h-192v128h-704c-35.376 0-64-28.656-64-64v-896c0-35.376 28.624-64 64-64h896c35.376 0 64 28.624 64 64v768c0 35.344-28.624 64-64 64zM896 64h-768v768h576v-640h64v512h128v-640z"/>
<glyph unicode="" d="M832 960h-128v-128h128v128zM960 960h-64v-192h-256v192h-256v-192h-256v192h-64c-35.376 0-64-28.656-64-64v-896c0-35.376 28.624-64 64-64h896c35.376 0 64 28.624 64 64v896c0 35.344-28.624 64-64 64zM896 64h-768v576h768v-576zM320 960h-128v-128h128v128zM576 512h-128v-128h128v128zM768 512h-128v-128h128v128zM384 320h-128v-128h128v128zM384 512h-128v-128h128v128zM576 320h-128v-128h128v128zM768 320h-128v-128h128v128z"/>
<glyph unicode="" d="M1006.932 695.464l-247.466 247.468c-22.76 22.758-59.71 22.758-82.468 0l-247.464-247.468c-22.822-22.758-22.822-59.708 0-82.53l41.202-41.202 247.466 247.466 164.998-164.998-247.466-247.466 41.264-41.264c22.758-22.76 59.708-22.76 82.468 0l247.464 247.464c22.76 22.822 22.76 59.774 0.002 82.53zM553.266 324.268l-247.466-247.468-164.998 164.998 247.464 247.466-41.264 41.264c-22.758 22.76-59.708 22.76-82.466 0l-247.468-247.464c-22.758-22.82-22.758-59.772 0-82.53l247.466-247.466c22.758-22.758 59.708-22.758 82.466 0l247.466 247.466c22.82 22.758 22.82 59.708 0 82.53l-41.2 41.204zM347.002 283.064c22.822-22.82 59.708-22.82 82.532 0l247.464 247.464c22.758 22.76 22.758 59.648 0 82.406-22.82 22.82-59.708 22.82-82.53 0l-247.466-247.464c-22.758-22.76-22.758-59.648 0-82.406z"/>
<glyph unicode="" d="M576 512h128v-320h-128zM960 768h-256v128c0 35.376-28.624 64-64 64h-256c-35.376 0-64-28.624-64-64v-128h-256c-35.376 0-64-28.624-64-64v-64h64v-640c0-35.376 28.624-64 64-64h768c35.376 0 64 28.624 64 64v640h64v64c0 35.376-28.624 64-64 64zM448 832h128v-64h-128v64zM832 64h-640v576h640v-576zM320 512h128v-320h-128z"/>
<glyph unicode="" d="M960 768h-256v128c0 35.376-28.624 64-64 64h-256c-35.376 0-64-28.624-64-64v-128h-256c-35.376 0-64-28.624-64-64v-64h128v-640c0-35.376 28.624-64 64-64h640c35.376 0 64 28.624 64 64v640h128v64c0 35.376-28.624 64-64 64zM448 832h128v-64h-128v64zM768 64h-512v576h512v-576z"/>
<glyph unicode="" d="M384 384h-320c-35.376 0-64-28.624-64-64v-320c0-35.376 28.624-64 64-64h320c35.376 0 64 28.624 64 64v320c0 35.376-28.624 64-64 64zM320 64h-192v192h192v-192zM384 960h-320c-35.376 0-64-28.624-64-64v-320c0-35.376 28.624-64 64-64h320c35.376 0 64 28.624 64 64v320c0 35.376-28.624 64-64 64zM320 640h-192v192h192v-192zM960 384h-320c-35.376 0-64-28.624-64-64v-320c0-35.376 28.624-64 64-64h320c35.376 0 64 28.624 64 64v320c0 35.376-28.624 64-64 64zM896 64h-192v192h192v-192zM960 960h-320c-35.376 0-64-28.624-64-64v-320c0-35.376 28.624-64 64-64h320c35.376 0 64 28.624 64 64v320c0 35.376-28.624 64-64 64zM896 640h-192v192h192v-192z"/>
<glyph unicode="" d="M960-64h-896c-35.376 0-64 28.624-64 64v896c0 35.376 28.624 64 64 64h896c35.376 0 64-28.624 64-64v-896c0-35.376-28.624-64-64-64zM896 832h-768v-768h768v768zM448 512h-192v192h192v-192zM448 192h-192v192h192v-192zM768 512h-192v192h192v-192zM768 192h-192v192h192v-192z"/>
<glyph unicode="" d="M256 320h512v-128h-512zM256 512h512v-128h-512zM960 960h-896c-35.376 0-64-28.624-64-64v-896c0-35.376 28.624-64 64-64h896c35.376 0 64 28.624 64 64v896c0 35.376-28.624 64-64 64zM896 64h-768v768h768v-768zM256 704h512v-128h-512z"/>
<glyph unicode="" d="M256 704h128v-128h-128zM256 512h128v-128h-128zM256 320h128v-128h-128zM512 320h256v-128h-256zM960 960h-896c-35.376 0-64-28.624-64-64v-896c0-35.376 28.624-64 64-64h896c35.376 0 64 28.624 64 64v896c0 35.376-28.624 64-64 64zM896 64h-768v768h768v-768zM512 512h256v-128h-256zM512 704h256v-128h-256z"/>
<glyph unicode="" d="M960 960h-512c-35.376 0-64-28.624-64-64v-512c0-35.376 28.624-64 64-64h512c35.376 0 64 28.624 64 64v512c0 35.376-28.624 64-64 64zM896 448h-384v384h384v-384zM512 64h-384v384h128v128h-192c-35.376 0-64-28.624-64-64v-512c0-35.376 28.624-64 64-64h512c35.376 0 64 28.624 64 64v192h-128v-128z"/>
<glyph unicode="" d="M896 960h-768c-35.376 0-64-28.624-64-64v-896c0-35.376 28.624-64 64-64h768c35.376 0 64 28.624 64 64v896c0 35.376-28.624 64-64 64zM320 64h-128v128h128v-128zM320 256h-128v128h128v-128zM320 448h-128v128h128v-128zM576 64h-128v128h128v-128zM576 256h-128v128h128v-128zM576 448h-128v128h128v-128zM832 64h-128v128h128v-128zM832 256h-128v128h128v-128zM832 448h-128v128h128v-128zM832 704h-640v128h640v-128z"/>
<glyph unicode="" d="M960 192h-64v640h-640v64c0 35.376 28.624 64 64 64h640c35.376 0 64-28.624 64-64v-640c0-35.376-28.624-64-64-64zM832 704v-704c0-35.376-28.624-64-64-64h-704c-35.376 0-64 28.624-64 64v704c0 35.376 28.624 64 64 64h704c35.376 0 64-28.624 64-64zM704 640h-576v-192h576v192zM704 320h-576v-256h576v256zM256 512h-64v64h64v-64zM384 512h-64v64h64v-64zM640 512h-192v64h192v-64z"/>
<glyph unicode="" d="M960-64h-896c-35.376 0-64 28.624-64 64v896c0 35.376 28.624 64 64 64h896c35.376 0 64-28.624 64-64v-896c0-35.376-28.624-64-64-64zM896 832h-768v-192h768v192zM896 512h-768v-448h768v448zM256 704h-64v64h64v-64zM384 704h-64v64h64v-64zM832 704h-384v64h384v-64z"/>
<glyph unicode="" d="M960 768h-256v128c0 35.376-28.656 64-64 64h-256c-35.344 0-64-28.624-64-64v-128h-256c-35.344 0-64-28.624-64-64v-704c0-35.376 28.656-64 64-64h896c35.344 0 64 28.624 64 64v704c0 35.376-28.656 64-64 64zM448 832h128v-64h-128v64zM896 64h-768v256h256v-64h256v64h256v-256zM896 384h-256v64h-256v-64h-256v256h768v-256z"/>
<glyph unicode="" d="M256 512h512v-128h-512zM256 704h512v-128h-512zM960 960h-896c-35.376 0-64-28.624-64-64v-704c0-35.376 28.624-64 64-64h128v-192l288 192h480c35.376 0 64 28.624 64 64v704c0 35.376-28.624 64-64 64zM896 256h-416l-160-96v96h-192v576h768v-576z"/>
<glyph unicode="" d="M960 960h-896c-35.344 0-64-28.624-64-64v-704c0-35.376 28.656-64 64-64h384v-64h-192c-35.344 0-64-28.624-64-64v-64h640v64c0 35.376-28.656 64-64 64h-192v64h384c35.344 0 64 28.624 64 64v704c0 35.376-28.656 64-64 64zM896 256h-768v576h768v-576z"/>
<glyph unicode="" d="M832 960h-640c-35.344 0-64-28.624-64-64v-896c0-35.376 28.656-64 64-64h640c35.344 0 64 28.624 64 64v896c0 35.376-28.656 64-64 64zM768 192h-512v640h512v-640z"/>
<glyph unicode="" d="M960 960h-896c-35.344 0-64-28.624-64-64v-896c0-35.376 28.656-64 64-64h896c35.344 0 64 28.624 64 64v896c0 35.376-28.656 64-64 64zM896 192h-768v640h768v-640z"/>
<glyph unicode="" d="M128 384h-128v-384c0-35.376 28.624-64 64-64h384v128h-320v320zM128 832h320v128h-384c-35.376 0-64-28.624-64-64v-384h128v320zM896 64h-320v-128h384c35.376 0 64 28.624 64 64v384h-128v-320zM960 960h-384v-128h320v-320h128v384c0 35.376-28.624 64-64 64zM576 512v192h-128v-192h-192v-128h192v-192h128v192h192v128z"/>
<glyph unicode="" d="M512 960c-212.062 0-384-171.938-384-384s384-640 384-640 384 427.938 384 640-171.938 384-384 384zM512 320c-141.376 0-256 114.624-256 256s114.624 256 256 256 256-114.624 256-256-114.624-256-256-256z"/>
<glyph unicode="" d="M512 960c-212.062 0-384-171.938-384-384s384-640 384-640 384 427.938 384 640-171.938 384-384 384zM512 320c-141.376 0-256 114.624-256 256s114.624 256 256 256 256-114.624 256-256-114.624-256-256-256zM512 704c-70.688 0-128-57.312-128-128s57.312-128 128-128 128 57.312 128 128-57.312 128-128 128z"/>
<glyph unicode="" d="M837.68 448c0 50.304 30.96 90 77.52 117.264-8.448 28.032-19.488 54.96-33.168 80.256-52.32-13.68-94.608 6.816-130.128 42.336-35.616 35.568-46.512 77.904-32.832 130.128-25.296 13.68-52.128 24.864-80.256 33.216-27.264-46.608-76.56-77.568-126.816-77.568s-99.504 30.96-126.816 77.568c-28.128-8.352-54.96-19.536-80.256-33.168 13.632-52.272 2.784-94.608-32.784-130.176-35.568-35.52-77.904-56.016-130.128-42.384-13.68-25.248-24.816-52.176-33.216-80.208 46.608-27.264 77.568-66.96 77.568-117.264 0-50.256-30.96-99.552-77.568-126.864 8.4-28.080 19.536-54.96 33.216-80.256 52.272 13.68 94.56 2.784 130.128-32.784s46.416-77.856 32.784-130.128c25.296-13.68 52.176-24.864 80.256-33.216 27.312 46.656 76.56 77.568 126.816 77.568s99.6-30.96 126.864-77.568c28.128 8.4 54.96 19.536 80.256 33.216-13.68 52.272-2.832 94.56 32.832 130.128 35.52 35.52 77.808 56.016 130.128 42.384 13.68 25.296 24.768 52.176 33.168 80.256-46.608 27.312-77.568 67.008-77.568 117.264zM512 272.656c-96.816 0-175.296 78.528-175.296 175.344s78.48 175.344 175.296 175.344c96.864 0 175.344-78.528 175.344-175.344s-78.48-175.344-175.344-175.344z"/>
<glyph unicode="" d="M169.062 333.414c23.757-96.307 53.965-138.291 154.726-182.374 100.813-44.032 148.685-92.16 188.211-92.16s84.326 42.086 185.139 86.221c100.813 43.981 73.933 57.498 97.69 153.702l-282.829-137.523-342.938 172.134zM998.963 584.397l-426.24 238.694c-33.382 18.688-88.013 18.688-121.395 0l-426.291-238.694c-33.382-18.688-33.382-49.306 0-67.994l426.24-238.694c33.382-18.688 88.013-18.688 121.395 0l275.558 154.317-298.803 69.99c-11.469-2.867-24.115-4.454-37.427-4.454-53.811 0-97.434 25.958-97.434 57.958s43.622 58.010 97.434 58.010c41.779 0 77.363-15.718 91.187-37.683l316.467-103.834 79.309 44.39c33.382 18.688 33.382 49.306 0 67.994zM868.71 131.994c-3.226-19.61 65.69-52.019 72.243 5.581 29.645 259.635-21.299 334.387-21.299 334.387l-71.424-39.987c0 0.051 60.57-57.6 20.48-299.981z"/>
<glyph unicode="" d="M135.373 634.522c89.446 76.8 160.153 137.574 351.845 29.184 92.109-52.070 166.4-71.629 228.25-71.629 108.288 0 178.432 60.262 239.104 112.333 21.658 18.586 24.474 51.61 6.246 73.677s-50.483 24.934-72.141 6.349c-89.446-76.851-160.102-137.574-351.898-29.184-253.338 143.104-372.019 41.165-467.353-40.755-21.606-18.586-24.422-51.558-6.246-73.626s50.534-24.985 72.192-6.349zM888.627 522.956c-89.446-76.8-160.102-137.574-351.898-29.184-253.286 143.104-371.968 41.165-467.302-40.704-21.658-18.586-24.474-51.61-6.246-73.677s50.483-24.934 72.141-6.349c89.446 76.851 160.153 137.574 351.845 29.235 92.109-52.070 166.4-71.681 228.25-71.681 108.288 0 178.432 60.262 239.104 112.384 21.658 18.586 24.474 51.558 6.246 73.626-18.176 22.118-50.483 24.934-72.141 6.349zM888.627 261.478c-89.446-76.8-160.102-137.574-351.898-29.184-253.286 143.104-372.019 41.216-467.302-40.704-21.658-18.586-24.474-51.61-6.246-73.677s50.483-24.934 72.141-6.349c89.498 76.851 160.153 137.523 351.898 29.235 92.109-52.070 166.4-71.681 228.25-71.681 108.288 0 178.432 60.262 239.104 112.384 21.658 18.534 24.474 51.558 6.246 73.626s-50.534 24.987-72.192 6.349z"/>
<glyph unicode="" d="M384 448c0 70.692 57.308 128 128 128s128-57.308 128-128c0-70.692-57.308-128-128-128s-128 57.308-128 128zM664.348 729.474c99.852-54.158 167.652-159.898 167.652-281.474s-67.8-227.316-167.652-281.474c44.066 70.126 71.652 170.27 71.652 281.474s-27.586 211.348-71.652 281.474zM288 448c0-111.204 27.584-211.348 71.652-281.474-99.852 54.16-167.652 159.898-167.652 281.474s67.8 227.314 167.652 281.474c-44.068-70.126-71.652-170.27-71.652-281.474zM96 448c0-171.9 54.404-326.184 140.652-431.722-142.302 90.948-236.652 250.314-236.652 431.722s94.35 340.774 236.652 431.722c-86.248-105.538-140.652-259.822-140.652-431.722zM787.352 879.72c142.298-90.946 236.648-250.312 236.648-431.72s-94.35-340.774-236.648-431.72c86.244 105.536 140.648 259.82 140.648 431.72s-54.404 326.184-140.648 431.72z"/>
<glyph unicode="" d="M35.328 379.802l69.786-17.306 52.531 82.534-99.84 24.73c-24.986 6.246-50.227-8.909-56.422-33.792-6.195-24.781 9.011-49.971 33.946-56.166zM946.227 366.49l-228.506-205.722-268.698 207.923c-5.12 3.994-11.008 6.81-17.306 8.397l-35.789 8.806-52.531-82.483 56.269-13.875 291.738-225.69c8.448-6.605 18.483-9.779 28.57-9.779 11.213 0 22.426 3.994 31.232 11.981l257.382 231.68c19.098 17.203 20.531 46.49 3.328 65.485-17.152 18.995-46.592 20.48-65.69 3.277zM444.621 592.333l250.214-160.205c21.094-13.466 49.152-7.885 63.437 12.646l257.434 370.79c14.592 21.094 9.318 49.92-11.827 64.512s-50.125 9.267-64.768-11.776l-231.834-333.926-251.75 161.178c-10.394 6.656-23.040 8.909-35.174 6.246s-22.63-9.984-29.235-20.429l-383.846-602.573c-13.824-21.606-7.373-50.176 14.336-63.898 7.731-4.915 16.384-7.219 24.934-7.219 15.411 0 30.464 7.578 39.322 21.504l358.758 563.149z"/>
<glyph unicode="" d="M749.514 275.859l-150.624 172.141 150.624 172.141c25.614 25.614 25.614 67.12 0 92.678s-67.12 25.559-92.678 0l-144.834-165.533-144.78 165.478c-25.614 25.614-67.12 25.614-92.678 0s-25.559-67.12 0-92.678l150.569-172.086-150.624-172.141c-25.559-25.614-25.559-67.010 0-92.57 25.614-25.614 67.12-25.614 92.678 0l144.834 165.424 144.78-165.424c25.614-25.614 67.12-25.614 92.678 0s25.614 66.956 0.054 92.57z"/>
<glyph unicode="" d="M856.592 514.281h-689.25c-36.654 0-39.769-29.694-39.769-66.281s3.114-66.281 39.769-66.281h689.25c36.654 0 39.834 29.694 39.834 66.281s-3.182 66.281-39.834 66.281z"/>
<glyph unicode="" d="M856.592 514.281h-278.378v278.378c0 36.587-29.627 39.769-66.281 39.769-36.587 0-66.281-3.114-66.281-39.769v-278.378h-278.311c-36.654 0-39.769-29.694-39.769-66.281s3.114-66.281 39.769-66.281h278.311v-278.378c0-36.587 29.694-39.769 66.281-39.769 36.654 0 66.281 3.182 66.281 39.769v278.378h278.378c36.654 0 39.834 29.694 39.834 66.281s-3.182 66.281-39.834 66.281z"/>
<glyph unicode="" d="M636.518 960c68.608 0 102.912-46.797 102.912-100.25 0-66.765-59.597-128.563-137.114-128.563-65.024 0-102.912 38.4-101.12 101.837 0 53.504 45.056 126.976 135.322 126.976zM425.421-64c-54.17 0-93.85 33.382-55.962 180.378l62.157 260.659c10.803 41.728 12.595 58.47 0 58.47-16.282 0-86.528-28.826-128.102-57.242l-27.034 45.107c131.738 111.923 283.238 177.51 348.211 177.51 54.118 0 63.078-65.126 36.096-165.325l-71.219-274.022c-12.595-48.435-7.219-65.126 5.376-65.126 16.282 0 69.478 20.122 121.805 61.85l30.72-41.728c-128.051-130.355-267.93-180.531-322.048-180.531z"/>
<glyph unicode="" d="M505.282 950.388c-277.435-3.714-499.383-231.669-495.67-509.161 3.714-277.327 231.669-499.33 509.105-495.616s499.383 231.669 495.67 509.161c-3.659 277.381-231.669 499.33-509.105 495.616zM560.988 782.944c51.063 0 66.137-29.6 66.137-63.516 0-42.325-33.915-81.483-91.75-81.483-48.387 0-71.379 24.357-70.014 64.553 0 33.915 28.398 80.446 95.628 80.446zM430.026 133.973c-34.898 0-60.457 21.19-36.045 114.361l40.032 165.151c6.935 26.487 8.083 37.083 0 37.083-10.431 0-55.76-18.295-82.576-36.318l-17.422 28.563c84.924 70.889 182.573 112.503 224.406 112.503 34.898 0 40.687-41.287 23.265-104.803l-45.876-173.67c-8.083-30.692-4.588-41.287 3.495-41.287 10.431 0 44.783 12.671 78.534 39.213l19.715-26.487c-82.521-82.521-172.579-114.306-207.532-114.306z"/>
<glyph unicode="" d="M721.408 845.619c-58.419 42.138-131.686 63.181-219.955 63.181-67.174 0-123.802-14.848-169.83-44.442-73.062-46.387-111.872-125.133-116.582-236.237h169.267c0 32.358 9.421 63.539 28.314 93.542s50.944 45.005 96.154 45.005c45.926 0 77.619-12.186 94.925-36.506 17.357-24.422 26.010-51.405 26.010-80.998 0-25.754-12.902-49.306-28.467-70.758-8.55-12.493-19.866-23.962-33.843-34.509 0 0-91.802-58.88-132.147-106.189-23.398-27.443-25.498-68.506-27.546-127.437-0.154-4.198 1.434-12.851 16.128-12.851s118.63 0 131.686 0 15.77 9.677 15.974 13.926c0.922 21.453 3.328 32.41 7.27 44.8 7.424 23.398 27.494 43.827 50.125 61.389l46.592 32.154c42.035 32.768 75.622 59.648 90.419 80.742 25.293 34.714 43.059 77.414 43.059 128.051 0 82.688-29.235 145.050-87.552 187.136zM498.739 195.891c-58.368 1.741-106.496-38.605-108.339-101.888-1.843-63.232 43.93-105.011 102.298-106.752 60.928-1.792 107.776 37.274 109.619 100.506 1.792 63.283-42.65 106.342-103.578 108.134z"/>
<glyph unicode="" d="M505.338 950.388c-277.49-3.714-499.439-231.669-495.725-509.161 3.714-277.327 231.669-499.33 509.161-495.616 277.381 3.714 499.385 231.669 495.616 509.161-3.659 277.381-231.615 499.33-509.051 495.616zM503.862 142.165h-2.785c-42.707 1.257-72.854 32.768-71.652 74.875 1.201 41.342 32.058 71.435 73.401 71.435l2.512-0.054c43.909-1.311 73.728-32.495 72.417-75.804-1.201-41.452-31.621-70.451-73.892-70.451zM683.595 498.899c-10.103-14.254-32.167-32.003-60.020-53.685l-30.692-21.19c-16.821-13.107-26.979-25.395-30.748-37.465-3.058-9.612-4.478-12.069-4.751-31.457l-0.054-4.97h-117.037l0.327 9.939c1.42 40.741 2.458 64.662 19.333 84.486 26.487 31.075 84.924 68.704 87.381 70.287 8.356 6.335 15.401 13.489 20.699 21.135 12.288 16.93 17.695 30.31 17.695 43.363 0 18.187-5.407 35.007-16.057 49.971-10.268 14.473-29.764 21.791-57.945 21.791-27.962 0-47.076-8.902-58.545-27.088-11.851-18.733-17.749-38.338-17.749-58.436v-5.024h-120.695l0.219 5.243c3.113 73.947 29.491 127.14 78.425 158.214 30.692 19.825 68.922 29.819 113.487 29.819 58.382 0 107.753-14.199 146.528-42.161 39.322-28.345 59.255-70.833 59.255-126.211 0-31.021-9.776-60.129-29.054-86.562z"/>
<glyph unicode="" d="M999.014 39.322l-456.090 800.307c-6.298 11.059-18.125 17.869-30.925 17.869s-24.576-6.81-30.925-17.869l-456.038-800.307c-6.195-10.854-6.093-24.115 0.256-34.867s18.022-17.357 30.618-17.357h912.128c12.493 0 24.218 6.605 30.618 17.357 6.349 10.752 6.451 24.013 0.358 34.867zM568.32 89.498h-112.64v102.4h112.64v-102.4zM568.32 268.698h-112.64v307.2h112.64v-307.2z"/>
<glyph unicode="" d="M358.4 499.2h-307.2c-28.262 0-51.2-22.938-51.2-51.2s22.938-51.2 51.2-51.2h307.2c28.262 0 51.2 22.938 51.2 51.2s-22.938 51.2-51.2 51.2zM358.4 294.4h-307.2c-28.262 0-51.2-22.886-51.2-51.2s22.938-51.2 51.2-51.2h307.2c28.262 0 51.2 22.886 51.2 51.2s-22.938 51.2-51.2 51.2zM993.28 499.2h-174.080v174.080c0 28.262-22.886 30.72-51.2 30.72s-51.2-2.458-51.2-30.72v-174.080h-168.96c-28.314 0-30.72-22.938-30.72-51.2s2.458-51.2 30.771-51.2h168.909v-174.080c0-28.262 22.886-30.72 51.2-30.72s51.2 2.458 51.2 30.72v174.080h174.080c28.262 0 30.72 22.938 30.72 51.2s-2.458 51.2-30.72 51.2zM358.4 704h-307.2c-28.262 0-51.2-22.938-51.2-51.2s22.938-51.2 51.2-51.2h307.2c28.262 0 51.2 22.938 51.2 51.2s-22.938 51.2-51.2 51.2z"/>
<glyph unicode="" d="M329.574 728.781c-21.402-20.89-230.502-240.435-230.502-240.435-11.418-11.162-17.101-25.754-17.101-40.346s5.683-29.184 17.101-40.346c0 0 209.101-219.546 230.502-240.384 21.402-20.89 59.904-22.323 82.739 0 22.784 22.272 24.576 53.35-0.051 80.64l-191.846 200.090 191.846 200.090c24.627 27.341 22.835 58.419 0.051 80.691-22.886 22.272-61.389 20.89-82.739 0z" horiz-adv-x="512"/>
<glyph unicode="" d="M664.73 521.574c-20.838-21.402-240.384-230.554-240.384-230.554-11.162-11.418-25.754-17.101-40.346-17.101-14.643 0-29.235 5.683-40.346 17.101 0 0-219.546 209.152-240.435 230.554-20.838 21.402-22.272 59.853 0 82.739 22.323 22.835 53.402 24.627 80.691 0l200.090-191.898 200.038 191.846c27.341 24.627 58.47 22.835 80.691 0 22.323-22.835 20.941-61.338 0-82.688z" horiz-adv-x="768"/>
<glyph unicode="" d="M664.73 374.426c-20.838 21.402-240.384 230.502-240.384 230.502-11.162 11.418-25.754 17.152-40.346 17.152-14.643 0-29.235-5.734-40.346-17.152 0 0-219.546-209.101-240.435-230.502-20.838-21.402-22.272-59.904 0-82.739 22.323-22.784 53.402-24.627 80.691 0l200.090 191.846 200.038-191.846c27.341-24.627 58.47-22.784 80.691 0 22.323 22.886 20.941 61.389 0 82.739z" horiz-adv-x="768"/>
<glyph unicode="" d="M182.426 728.781c21.402-20.89 230.502-240.435 230.502-240.435 11.469-11.162 17.152-25.754 17.152-40.346s-5.683-29.184-17.152-40.346c0 0-209.101-219.546-230.502-240.384-21.402-20.89-59.853-22.323-82.739 0-22.835 22.272-24.627 53.35 0 80.64l191.898 200.090-191.846 200.090c-24.627 27.341-22.835 58.419 0 80.691s61.338 20.89 82.688 0z" horiz-adv-x="512"/>
<glyph unicode="" d="M378.829 272.998c13.722-13.875 13.722-36.301 0-50.125-13.722-13.875-35.891-13.875-49.613 0l-196.096 200.038c-13.722 13.875-13.722 36.301 0 50.125l196.096 200.090c13.722 13.875 35.891 13.875 49.613 0s13.722-36.25 0-50.125l-160.768-175.002 160.768-175.002z" horiz-adv-x="512"/>
<glyph unicode="" d="M495.002 570.829c13.875 13.722 36.301 13.722 50.125 0 13.875-13.722 13.875-35.891 0-49.613l-200.038-196.096c-13.875-13.722-36.301-13.722-50.125 0l-200.090 196.096c-13.824 13.722-13.824 35.891 0 49.613 13.875 13.722 36.25 13.722 50.125 0l175.002-160.768 175.002 160.768z" horiz-adv-x="640"/>
<glyph unicode="" d="M144.947 325.171c-13.875-13.722-36.25-13.722-50.125 0-13.824 13.722-13.875 35.891 0 49.664l200.090 195.994c13.875 13.722 36.301 13.722 50.125 0l200.090-196.045c13.875-13.773 13.875-35.942 0-49.664s-36.25-13.722-50.125 0l-175.053 160.819-175.002-160.768z" horiz-adv-x="640"/>
<glyph unicode="" d="M165.171 272.998c-13.722-13.875-13.722-36.301 0-50.125 13.67-13.875 35.891-13.875 49.613 0l196.096 200.038c13.722 13.875 13.722 36.301 0 50.125l-196.096 200.090c-13.722 13.875-35.891 13.875-49.613 0s-13.722-36.25-0.051-50.074l160.819-175.053-160.768-175.002z" horiz-adv-x="512"/>
<glyph unicode="" d="M505.583 135.053c11.306-11.433 11.306-29.869 0-41.302s-29.573-11.433-40.88 0l-330.328 333.577c-11.306 11.433-11.306 29.911 0 41.302l330.328 333.619c11.306 11.433 29.573 11.433 40.88 0s11.306-29.869 0-41.302l-301.219-312.947 301.219-312.947z" horiz-adv-x="640"/>
<glyph unicode="" d="M135.053 633.583c-11.433 11.306-29.911 11.306-41.302 0-11.391-11.264-11.391-29.573 0-40.88l333.619-330.328c11.433-11.306 29.869-11.306 41.302 0l333.619 330.328c11.391 11.306 11.433 29.573 0 40.88s-29.953 11.306-41.302 0.042l-312.989-301.261-312.947 301.219z" horiz-adv-x="896"/>
<glyph unicode="" d="M760.947 262.417c11.433-11.306 29.911-11.306 41.302 0 11.433 11.306 11.433 29.573 0 40.88l-333.619 330.328c-11.391 11.306-29.869 11.306-41.259 0l-333.619-330.328c-11.391-11.306-11.433-29.573 0-40.88s29.869-11.306 41.302 0l312.947 301.261 312.947-301.261z" horiz-adv-x="896"/>
<glyph unicode="" d="M134.362 135.053c-11.306-11.433-11.306-29.869 0-41.302s29.573-11.433 40.88 0l330.327 333.577c11.306 11.433 11.306 29.911 0 41.302l-330.329 333.619c-11.306 11.433-29.573 11.433-40.88 0s-11.306-29.869 0-41.302l301.219-312.947-301.219-312.947z" horiz-adv-x="640"/>
<glyph unicode="" d="M434.592-0.224c227.264 0 427.872 125.952 427.872 335.84 0 76.576-35.808 123.488-50.816 148.192-12.512 14.816-12.512 27.168 17.504 29.632 117.344 17.28 194.752 81.504 194.752 204.96 0 66.688-54.944 146.88-154.816 146.88-47.424 0-105.376-45.632-105.376-95.008 0-27.2 27.968-59.648 67.904-59.648 44.96 0 70.432 47.296 62.944 67.072-2.464 12.352-10.464 27.168 6.976 27.168 32.512 0 69.952-41.984 69.952-81.504 0-69.152-64.928-116.672-167.328-116.672-54.944 0-102.368 33.888-154.816 33.888-132.352 0-209.76-104.896-209.76-196.288 0-103.712 79.904-153.088 139.84-153.088 67.392 0 87.392 39.488 87.392 71.616 0 37.024-22.496 61.728-69.952 61.728-37.44 0-54.944-39.488-52.448-59.264 2.496-9.888-4.992-17.28-12.512-17.28-9.984 0-39.936 32.096-39.936 74.048 0 29.664 20 127.136 124.864 127.136 112.352 0 190.624-102.4 190.624-186.368 0-118.528-133.216-244.512-360.448-244.512-227.264 0-357.088 103.712-357.088 254.368 0 69.152 29.984 133.344 67.392 160.512 15.008 9.888 22.496 7.392 29.984-4.928 17.504-12.352 57.44-45.632 82.4-45.632 32.48 0 49.952 40.672 49.952 75.296 0 29.632-34.944 49.984-64.896 49.984s-49.952-17.888-62.432-22.816c-17.472 27.168-27.456 61.728-27.456 88.896 0 79.008 57.44 128.608 112.384 128.608 47.424 0 87.392-37.216 79.904-84.16-2.496-12.352-2.496-22.208 2.496-22.208 19.968 0 64.896 29.632 64.896 83.968 0 76.544-57.408 116.064-132.352 116.064-122.336 0-197.248-86.432-197.248-177.824 0-54.304 19.968-103.712 52.448-145.696-49.952-22.208-147.328-106.176-147.328-254.368 0.032-125.952 87.424-318.592 434.528-318.592z"/>
<glyph unicode="" d="M896 512c0 6.26-0.152 12.59-0.454 18.812-1.278 26.478-23.746 46.918-50.256 45.632-26.478-1.278-46.908-23.778-45.63-50.256 0.224-4.688 0.34-9.46 0.34-14.186 0-158.894-129.196-288.166-288-288.166s-288 129.272-288 288.166c0 4.692 0.114 9.438 0.336 14.106 1.27 26.48-19.166 48.974-45.644 50.246-26.46 1.26-48.974-19.166-50.244-45.646-0.298-6.196-0.448-12.49-0.448-18.708 0-190.018 138.622-348.226 320-378.8v-133.2c0-35.346 28.654-64 64-64s64 28.654 64 64v133.2c181.378 30.574 320 188.782 320 378.8zM512 960c-106.040 0-192-85.96-192-192v-256c0-106.040 85.96-192 192-192s192 85.96 192 192v256c0 106.040-85.96 192-192 192z"/>
<glyph unicode="" d="M1005.854 159.753l-438.286 767c-11.395 19.941-32.601 32.247-55.568 32.247s-44.173-12.306-55.567-32.247l-438.286-767c-11.319-19.809-11.238-44.144 0.213-63.876s32.539-31.877 55.354-31.877h876.572c22.814 0 43.903 12.145 55.354 31.877s11.533 44.067 0.214 63.876zM576 192h-128v128h128v-128zM576 384h-128v256h128v-256z"/>
<glyph unicode="" d="M192 896c-106.062 0-192-85.938-192-192s85.938-192 192-192c106.062 0 192 85.938 192 192s-85.938 192-192 192zM672 352l160 160h-448v-448l160 160 288-288 128 128-288 288z" horiz-adv-x="960"/>
<glyph unicode="" d="M384 384l128 128 288-288 160 160v-448h-448l160 160-288 288zM192 512c-106.062 0-192 85.938-192 192s85.938 192 192 192c106.062 0 192-85.938 192-192s-85.938-192-192-192z" horiz-adv-x="960"/>
<glyph unicode="" d="M512 768l-128-128-256 256-128-128 256-256-128-128 64-64 384 384-64 64zM640 384l128 128-64 64-384-384 64-64 128 128 256-256 128 128-256 256z" horiz-adv-x="896"/>
<glyph unicode="" d="M448 512v256h-256v-256h-192l320-384 320 384h-192z" horiz-adv-x="640"/>
<glyph unicode="" d="M384 576v192l-384-320 384-320v192h256v256h-256z" horiz-adv-x="640"/>
<glyph unicode="" d="M640 448l-384 320v-192h-256v-256h256v-192l384 320z" horiz-adv-x="640"/>
<glyph unicode="" d="M256 512v128h-128v-128h-128l192-256 192 256h-128z" horiz-adv-x="384"/>
<glyph unicode="" d="M256 512v128l-256-192 256-192v128h128v128h-128z" horiz-adv-x="384"/>
<glyph unicode="" d="M384 448l-256 192v-128h-128v-128h128v-128l256 192z" horiz-adv-x="384"/>
<glyph unicode="" d="M192 640l-192-256h128v-128h128v128h128l-192 256z" horiz-adv-x="384"/>
<glyph unicode="" d="M320 768l-320-384h192v-256h256v256h192l-320 384z" horiz-adv-x="640"/>
<glyph unicode="" d="M640 768l-384-384-128 128-128-128 256-256 512 512-128 128z" horiz-adv-x="768"/>
<glyph unicode="" d="M512 640l-192-192-192 192-128-128 320-320 320 320-128 128z" horiz-adv-x="640"/>
<glyph unicode="" d="M448 640l-128 128-320-320 320-320 128 128-192 192 192 192z" horiz-adv-x="448"/>
<glyph unicode="" d="M128 768l-128-128 192-192-192-192 128-128 320 320-320 320z" horiz-adv-x="448"/>
<glyph unicode="" d="M320 704l-320-320 128-128 192 192 192-192 128 128-320 320z" horiz-adv-x="640"/>
<glyph unicode="" d="M687.032 847.032c-30.126 66.616-97.166 112.968-175.032 112.968-106.040 0-192-85.96-192-192v-256c0-10.106 0.786-20.026 2.29-29.71l364.742 364.742zM244.714 404.714c-13.348 33.178-20.714 69.386-20.714 107.286 0 4.692 0.114 9.438 0.336 14.106 1.27 26.48-19.166 48.974-45.644 50.246-26.46 1.26-48.974-19.166-50.244-45.646-0.298-6.194-0.448-12.488-0.448-18.706 0-64.782 16.124-125.86 44.548-179.452l72.166 72.166zM845.292 576.444c-26.478-1.278-46.908-23.778-45.63-50.256 0.224-4.688 0.34-9.46 0.34-14.186 0-158.894-129.196-288.166-288-288.166-54.89 0-106.236 15.454-149.934 42.23l70.916 70.916c24.1-10.9 50.848-16.98 79.020-16.98 106.040 0 192 85.96 192 192v96l287.996 287.998-64 64-928-928 64-64 228.79 228.79c45.548-31.794 98.266-53.992 155.21-63.59v-133.2c0-35.346 28.654-64 64-64s64 28.654 64 64v133.2c181.378 30.574 320 188.784 320 378.8 0 6.26-0.152 12.59-0.454 18.812-1.276 26.478-23.746 46.918-50.254 45.632z"/>
<glyph unicode="" d="M1016.904 729.342c-51.096 63.322-146.47 102.658-248.904 102.658s-197.808-39.336-248.904-102.658c-4.592-5.69-7.096-12.782-7.096-20.094 0 7.312-2.504 14.404-7.096 20.094-51.094 63.322-146.468 102.658-248.904 102.658s-197.81-39.336-248.904-102.658c-4.592-5.69-7.096-12.782-7.096-20.094v-640c0-13.564 8.554-25.656 21.344-30.174 12.792-4.518 27.042-0.48 35.56 10.078 39.242 48.636 115.532 78.848 199.096 78.848s159.854-30.212 199.096-78.848c6.196-7.678 15.418-11.908 24.91-11.908h63.988c9.49 0 18.716 4.23 24.91 11.908 39.242 48.636 115.532 78.848 199.096 78.848 83.562 0 159.852-30.212 199.096-78.848 8.52-10.554 22.766-14.594 35.56-10.078 12.792 4.518 21.344 16.61 21.344 30.174v640c0 7.312-2.504 14.404-7.096 20.094zM448 139.42c-52.022 33.296-120.28 52.58-192 52.58-71.718 0-139.978-19.284-192-52.578v557.898c40.904 43.826 113.22 70.68 192 70.68s151.096-26.856 192-70.68v-557.9zM960 139.422c-52.024 33.294-120.282 52.578-192 52.578s-139.976-19.284-192-52.58v557.9c40.904 43.824 113.22 70.68 192 70.68s151.096-26.854 192-70.68v-557.898zM640 640h256v-64h-256v64zM640 512h256v-64h-256v64zM640 384h192v-64h-192v64zM128 640h256v-64h-256v64zM128 512h256v-64h-256v64zM128 384h192v-64h-192v64z"/>
<glyph unicode="" d="M0 512v-128h512v128h-512z" horiz-adv-x="512"/>
<glyph unicode="" d="M448 704h-128v-128h-128v-128h128v-128h128v128h128v128h-128v128zM192 64h384v128h-384v-128zM640 960h-512v-64h480l224-224v-608h64v640l-256 256zM0 832v-896h768v704l-192 192h-576zM704 0h-640v768h480l160-160v-608z" horiz-adv-x="896"/>
<glyph unicode="" d="M512 640h-128v-128h-128v-128h128v-128h128v128h128v128h-128v128zM832 896c-32 0-736 0-768 0s-64-32-64-64 0-736 0-768 32-64 64-64 736 0 768 0 64 32 64 64 0 736 0 768-32 64-64 64zM768 160c0-16-17-32-32-32s-558 0-576 0-32 12-32 32c0 16 0 560 0 576s16 32 32 32 561 0 576 0 32-16 32-32 0-560 0-576z" horiz-adv-x="896"/>
<glyph unicode="" d="M832 896h-768c-32 0-64-32-64-64v-768c0-32 32-64 64-64h768c32 0 64 32 64 64v768c0 32-32 64-64 64zM768 160c0-16-17-32-32-32h-576c-18 0-32 12-32 32v576c0 16 16 32 32 32h576c15 0 32-16 32-32v-576zM256 354v-98h98l286 286v98h-98l-286-286z" horiz-adv-x="896"/>
<glyph unicode="" d="M832 896h-768c-32 0-64-32-64-64v-768c0-32 32-64 64-64h768c32 0 64 32 64 64v768c0 32-32 64-64 64zM768 160c0-16-17-32-32-32h-576c-18 0-32 12-32 32v576c0 16 16 32 32 32h576c15 0 32-16 32-32v-576zM448 576c-71 0-128-57-128-128s57-128 128-128 128 57 128 128-57 128-128 128z" horiz-adv-x="896"/>
<glyph unicode="" d="M832 896h-768c-32 0-64-32-64-64v-768c0-32 32-64 64-64h768c32 0 64 32 64 64v768c0 32-32 64-64 64zM768 160c0-16-17-32-32-32h-576c-18 0-32 12-32 32v576c0 16 16 32 32 32h576c15 0 32-16 32-32v-576zM256 384h384v128h-384v-128z" horiz-adv-x="896"/>
<glyph unicode="" d="M832 896h-768c-32 0-64-32-64-64v-768c0-32 32-64 64-64h768c32 0 64 32 64 64v768c0 32-32 64-64 64zM768 160c0-16-17-32-32-32h-576c-18 0-32 12-32 32v576c0 16 16 32 32 32h576c15 0 32-16 32-32v-576zM448 512h-192v-128h192v-128l256 192-256 192v-128z" horiz-adv-x="896"/>
<glyph unicode="" d="M1016.904 729.342c-51.096 63.322-146.47 102.658-248.904 102.658s-197.808-39.336-248.904-102.658c-4.592-5.69-7.096-12.782-7.096-20.094 0 7.312-2.504 14.404-7.096 20.094-51.094 63.322-146.468 102.658-248.904 102.658s-197.81-39.336-248.904-102.658c-4.592-5.69-7.096-12.782-7.096-20.094v-640c0-13.564 8.554-25.656 21.344-30.174 12.792-4.518 27.042-0.48 35.56 10.078 39.242 48.636 115.532 78.848 199.096 78.848s159.854-30.212 199.096-78.848c6.196-7.678 15.418-11.908 24.91-11.908h63.988c9.49 0 18.716 4.23 24.91 11.908 39.242 48.636 115.532 78.848 199.096 78.848 83.562 0 159.852-30.212 199.096-78.848 8.52-10.554 22.766-14.594 35.56-10.078 12.792 4.518 21.344 16.61 21.344 30.174v640c0 7.312-2.504 14.404-7.096 20.094zM448 139.42c-52.022 33.296-120.28 52.58-192 52.58-71.718 0-139.978-19.284-192-52.578v557.898c40.904 43.826 113.22 70.68 192 70.68s151.096-26.856 192-70.68v-557.9zM960 139.422c-52.024 33.294-120.282 52.578-192 52.578s-139.976-19.284-192-52.58v557.9c40.904 43.824 113.22 70.68 192 70.68s151.096-26.854 192-70.68v-557.898z"/>
<glyph unicode="" d="M896 704h-224l-64-64h192l-128-128h-448l-128 128h192l-64 64h-224v-63.999l160-160.001-160-160v-64h224l64 64h-192l128 128h448l128-128h-192l64-64h224v64l-160 160 160 160.001v63.999zM640 768h-128v192h-128v-192h-128l192-192 192 192zM256 192h128v-192h128v192h128l-192 192-192-192z" horiz-adv-x="896"/>
<glyph unicode="" d="M447.938 610c-89.407 0-161.938-72.531-161.938-162 0-89.375 72.531-162.062 161.938-162.062 89.438 0 161.438 72.688 161.438 162.062-0.001 89.469-72.001 162-161.438 162zM772.625 354.938l-29.188-70.312 58.937-115.75-72.188-72.188-118.436 55.937-70.312-28.875-35.688-109.25-4.562-14.5h-102.032l-44.156 123.312-70.312 29-115.904-58.688-72.156 72.125 55.875 118.5-28.969 70.25-123.534 40.313v101.969l123.406 44.219 28.969 70.188-51.906 102.469-6.844 13.438 72.062 72.062 118.594-55.844 70.219 29.031 35.656 109.188 4.594 14.468h102l44.188-123.469 70.125-29.031 116.062 58.813 72.125-72.062-55.875-118.406 28.875-70.345 123.75-40.25v-101.938l-123.375-44.374z" horiz-adv-x="896"/>
<glyph unicode="" d="M512 768c-71 0-128-57-128-128 0-47 26-88 64-110v-18c0-64-64-128-128-128-53 0-95-11-128-29v303c38 22 64 63 64 110 0 71-57 128-128 128s-128-57-128-128c0-47 26-88 64-110v-419c-38-22-64-63-64-110 0-71 57-128 128-128s128 57 128 128c0 34-13 64-34 87 19 23 49 41 98 41 128 0 256 128 256 256v18c38 22 64 63 64 110 0 71-57 128-128 128zM128 832c35 0 64-29 64-64s-29-64-64-64-64 29-64 64 29 64 64 64zM128 64c-35 0-64 29-64 64s29 64 64 64 64-29 64-64-29-64-64-64zM512 576c-35 0-64 29-64 64s29 64 64 64 64-29 64-64-29-64-64-64z" horiz-adv-x="640"/>
<glyph unicode="" d="M694.875 512c-28.5 110.219-127.75 192-246.875 192-119.094 0-218.375-81.781-246.906-192h-201.094v-128h201.094c28.531-110.25 127.812-192 246.906-192 119.125 0 218.375 81.75 246.875 192h201.125v128h-201.125zM448 320c-70.656 0-128 57.375-128 128 0 70.656 57.344 128 128 128 70.625 0 128-57.344 128-128 0-70.625-57.375-128-128-128z" horiz-adv-x="896"/>
<glyph unicode="" d="M832 238s0 306 0 402-96 192-192 192c-64 0-64 0-64 0v128l-192-192 192-192v128s32 0 64 0 64-32 64-64 0-402 0-402c-38-22-64-63-64-110 0-71 57-128 128-128s128 57 128 128c0 47-26 88-64 110zM768 64c-35 0-64 29-64 64s29 64 64 64 64-29 64-64-29-64-64-64zM320 192s-32 0-64 0-64 32-64 64 0 402 0 402c38 22 64 63 64 110 0 71-57 128-128 128s-128-57-128-128c0-47 26-88 64-110 0 0 0-306 0-402s96-192 192-192c64 0 64 0 64 0v-128l192 192-192 192v-128zM128 704c-35 0-64 29-64 64s29 64 64 64 64-29 64-64-29-64-64-64z" horiz-adv-x="896"/>
<glyph unicode="" d="M640 512c-47.625 0-88.625-26.312-110.625-64.906-5.75 0.406-11.375 0.906-17.375 0.906-131.062 0-255.438 99.844-300.812 223.438 27.281 23.468 44.812 57.843 44.812 96.562 0 70.656-57.344 128-128 128s-128-57.344-128-128c0-47.219 25.844-88.062 64-110.281v-419.469c-38.156-22.188-64-63-64-110.25 0-70.625 57.344-128 128-128s128 57.375 128 128c0 47.25-25.844 88.062-64 110.25v230.281c84.156-89.031 200.375-148.531 320-148.531 6.375 0 11.625 0.438 17.375 0.625 22.125-38.437 63.125-64.625 110.625-64.625 70.625 0 128 57.375 128 128 0 70.656-57.375 128-128 128zM128 64c-35.312 0-64 28.625-64 64 0 35.312 28.688 64 64 64 35.406 0 64-28.688 64-64 0-35.375-28.594-64-64-64zM128 704c-35.312 0-64 28.594-64 64s28.688 64 64 64c35.406 0 64-28.594 64-64s-28.594-64-64-64zM640 320c-35.312 0-64 28.625-64 64 0 35.406 28.688 64 64 64 35.375 0 64-28.594 64-64 0-35.375-28.625-64-64-64z" horiz-adv-x="768"/>
<glyph unicode="" d="M704 238s0 306 0 402-96 192-192 192c-64 0-64 0-64 0v128l-192-192 192-192v128s32 0 64 0 64-32 64-64 0-402 0-402c-38-22-64-63-64-110 0-71 57-128 128-128s128 57 128 128c0 47-26 88-64 110zM640 64c-35 0-64 29-64 64s29 64 64 64 64-29 64-64-29-64-64-64zM128 896c-71 0-128-57-128-128 0-47 26-88 64-110v-419c-38-22-64-63-64-110 0-71 57-128 128-128s128 57 128 128c0 47-26 88-64 110v419c38 22 64 63 64 110 0 71-57 128-128 128zM128 64c-35 0-64 29-64 64s29 64 64 64 64-29 64-64-29-64-64-64zM128 704c-35 0-64 29-64 64s29 64 64 64 64-29 64-64-29-64-64-64z" horiz-adv-x="768"/>
<glyph unicode="" d="M514 768c34 1 61 28 62 62 1 37-29 67-66 66-34-1-61-28-62-62-1-37 29-67 66-66zM978 384h-18l-127 246c18 2 36 9 52 16 24 11 29 43 11 62l-1 1c-11 11-28 15-43 8-14-6-34-13-53-13-56 0-81 64-287 64s-231-64-287-64c-20 0-39 6-53 13-15 6-32 3-43-8l-1-1c-18-19-13-50 11-62 16-8 34-14 52-16l-127-246h-18c-8 0-14-7-13-15 11-64 92-113 191-113s180 49 191 113c1 8-5 15-13 15h-18l-127 245c83 7 127 49 191 49v-486c-35 0-64-29-64-64h-71c-28 0-57-29-57-64h512c0 35-29 64-71 64h-57c0 35-29 64-64 64v486c64 0 108-42 191-49l-127-245h-18c-8 0-14-7-13-15 11-64 92-113 191-113s180 49 191 113c1 8-5 15-13 15zM320 384h-192l96 180 96-180zM704 384l96 180 96-180h-192z"/>
<glyph unicode="" d="M320 384h448v128h-448v-128zM320 128h448v128h-448v-128zM320 768v-128h448v128h-448zM79 512h78v256h-36l-85-23v-50l43 2v-185zM189 306c0 36-12 78-96 78-33 0-64-6-83-16l1-66c21 10 42 15 67 15s32-11 32-28c0-26-30-58-110-112v-50h192v67l-91-2c49 30 87 66 87 113l1 1z" horiz-adv-x="768"/>
<glyph unicode="" d="M0 384h128v128h-128v-128zM0 640h128v128h-128v-128zM0 128h128v128h-128v-128zM256 384h512v128h-512v-128zM256 640h512v128h-512v-128zM256 128h512v128h-512v-128z" horiz-adv-x="768"/>
</font>
</defs>
</svg>
